999
DXF file: C:\prouser\laser_misumi\drawings\interface_panel_rev_2.dxf
999
Pro/ENGINEER 2009360 by Parametric Technology Corporation
  0
SECTION
  2
HEADER
  9
$ACADVER
  1
AC1018
  9
$DWGCODEPAGE
  3
ANSI_1252
  9
$EXTMAX
 10
22.0
 20
17.0
 30
0.0
  9
$EXTMIN
 10
0.0
 20
0.0
 30
0.0
  9
$LIMMIN
 10
0.0
 20
0.0
  9
$LIMMAX
 10
22.0
 20
17.0
  9
$VIEWCTR
 10
11.0
 20
8.5
  9
$VIEWSIZE
 40
17.0
  9
$CLAYER
  8
0
  9
$LTSCALE
 40
1.21
  9
$CELTYPE
  6
BYLAYER
  9
$DIMSCALE
 40
1.0
  9
$DIMASZ
 40
0.1875
  9
$DIMEXO
 40
0.1375
  9
$DIMDLI
 40
0.836
  9
$DIMEXE
 40
0.396
  9
$DIMCEN
 40
0.198
  9
$DIMLFAC
 40
1.0
  9
$DIMBLK
  1
_FILLED
  9
$DIMTXT
 40
0.15625
  9
$DIMTOL
 70
0
  9
$DIMLIM
 70
0
  9
$DIMTFAC
 40
1.0
  9
$PDMODE
 70
3
  9
$PDSIZE
 40
0.3125
  9
$HANDSEED
  5
3D3
  9
$TILEMODE
 70
1
  9
$MEASUREMENT
 70
0
  9
$INSUNITS
 70
1
  0
ENDSEC
  0
SECTION
  2
CLASSES
  0
CLASS
  1
ACDBDICTIONARYWDFLT
  2
AcDbDictionaryWithDefault
  3
AutoCAD 2000
 90
0
 91
1
280
0
281
0
  0
CLASS
  1
ACDBPLACEHOLDER
  2
AcDbPlaceHolder
  3
AutoCAD 2000
 90
0
 91
1
280
0
281
0
  0
CLASS
  1
LAYOUT
  2
AcDbLayout
  3
AutoCAD 2000
 90
0
 91
0
280
0
281
0
  0
CLASS
  1
TABLESTYLE
  2
AcDbTableStyle
  3
ObjectDBX Classes
 90
2047
 91
1
280
0
281
0
  0
CLASS
  1
ACAD_TABLE
  2
AcDbTable
  3
ObjectDBX Classes
 90
1025
 91
4
280
0
281
1
  0
ENDSEC
  0
SECTION
  2
TABLES
  0
TABLE
  2
VPORT
  5
8
100
AcDbSymbolTable
 70
2
  0
VPORT
  5
1F4
100
AcDbSymbolTableRecord
100
AcDbViewportTableRecord
  2
*ACTIVE
 70
0
 10
0.0
 20
0.0
 11
1.0
 21
1.0
 12
11.0
 22
8.5
 13
0.0
 23
0.0
 14
1.0
 24
1.0
 15
0.0
 25
0.0
 16
0.0
 26
0.0
 36
1.0
 17
0.0
 27
0.0
 37
0.0
 40
17.0
 41
1.2941176471
 42
50.0
 43
0.0
 44
0.0
 50
0.0
 51
0.0
 71
0
 72
100
 73
1
 74
1
 75
0
 76
0
 77
0
 78
0
  0
ENDTAB
  0
TABLE
  2
LTYPE
  5
5
100
AcDbSymbolTable
 70
6
  0
LTYPE
  5
14
100
AcDbSymbolTableRecord
100
AcDbLinetypeTableRecord
  2
BYBLOCK
 70
0
  3

 72
65
 73
0
 40
0.0
  0
LTYPE
  5
15
100
AcDbSymbolTableRecord
100
AcDbLinetypeTableRecord
  2
BYLAYER
 70
0
  3

 72
65
 73
0
 40
0.0
  0
LTYPE
  5
16
100
AcDbSymbolTableRecord
100
AcDbLinetypeTableRecord
  2
CONTINUOUS
 70
64
  3
Solid line
 72
65
 73
0
 40
0.0
  0
LTYPE
  5
1F5
100
AcDbSymbolTableRecord
100
AcDbLinetypeTableRecord
  2
CENTER
 70
64
  3
____ _ ____ _ ____ _ ____ _ ____ _ ____ _ ____
 72
65
 73
4
 40
0.6
 49
0.375
 74
0
 49
-0.075
 74
0
 49
0.075
 74
0
 49
-0.075
 74
0
  0
LTYPE
  5
1F6
100
AcDbSymbolTableRecord
100
AcDbLinetypeTableRecord
  2
HIDDEN
 70
64
  3
- - - - - - - - - - - - - - - - - - - -
 72
65
 73
2
 40
0.2
 49
0.1
 74
0
 49
-0.1
 74
0
  0
LTYPE
  5
1F7
100
AcDbSymbolTableRecord
100
AcDbLinetypeTableRecord
  2
PHANTOM
 70
64
  3
_____ _ _ _____ _ _ _____ _ _ _____
 72
65
 73
6
 40
0.8
 49
0.45
 74
0
 49
-0.05
 74
0
 49
0.1
 74
0
 49
-0.05
 74
0
 49
0.1
 74
0
 49
-0.05
 74
0
  0
LTYPE
  5
1F8
100
AcDbSymbolTableRecord
100
AcDbLinetypeTableRecord
  2
DOT
 70
64
  3
. . . . . . . . . . . . . . . . . . . .
 72
65
 73
2
 40
0.2
 49
0.1
 74
0
 49
-0.1
 74
0
  0
LTYPE
  5
1F9
100
AcDbSymbolTableRecord
100
AcDbLinetypeTableRecord
  2
DASHED
 70
64
  3
- - - - - - - - - - - - - - - - - - - -
 72
65
 73
2
 40
0.2
 49
0.1
 74
0
 49
-0.1
 74
0
  0
ENDTAB
  0
TABLE
  2
LAYER
  5
2
100
AcDbSymbolTable
 70
36
  0
LAYER
  5
10
100
AcDbSymbolTableRecord
100
AcDbLayerTableRecord
  2
0
 70
0
 62
7
  6
CONTINUOUS
370
-3
390
F
  0
LAYER
  5
1FA
100
AcDbSymbolTableRecord
100
AcDbLayerTableRecord
  2
DEFAULT_1
 70
0
 62
7
  6
CENTER
370
-3
390
F
  0
LAYER
  5
1FB
100
AcDbSymbolTableRecord
100
AcDbLayerTableRecord
  2
DEFAULT_2
 70
0
 62
8
  6
HIDDEN
370
-3
390
F
  0
LAYER
  5
1FC
100
AcDbSymbolTableRecord
100
AcDbLayerTableRecord
  2
DEFAULT_3
 70
0
 62
7
  6
PHANTOM
370
-3
390
F
  0
LAYER
  5
1FD
100
AcDbSymbolTableRecord
100
AcDbLayerTableRecord
  2
01___PRT_ALL_DTM_PLN
 70
0
 62
7
  6
CONTINUOUS
370
-3
390
F
  0
LAYER
  5
1FE
100
AcDbSymbolTableRecord
100
AcDbLayerTableRecord
  2
01___PRT_DEF_DTM_PLN
 70
0
 62
7
  6
CONTINUOUS
370
-3
390
F
  0
LAYER
  5
1FF
100
AcDbSymbolTableRecord
100
AcDbLayerTableRecord
  2
02___PRT_ALL_AXES
 70
0
 62
7
  6
CONTINUOUS
370
-3
390
F
  0
LAYER
  5
200
100
AcDbSymbolTableRecord
100
AcDbLayerTableRecord
  2
03___PRT_ALL_CURVES
 70
0
 62
7
  6
CONTINUOUS
370
-3
390
F
  0
LAYER
  5
201
100
AcDbSymbolTableRecord
100
AcDbLayerTableRecord
  2
04___PRT_ALL_DTM_PNT
 70
0
 62
7
  6
CONTINUOUS
370
-3
390
F
  0
LAYER
  5
202
100
AcDbSymbolTableRecord
100
AcDbLayerTableRecord
  2
05___PRT_ALL_DTM_CSYS
 70
0
 62
7
  6
CONTINUOUS
370
-3
390
F
  0
LAYER
  5
203
100
AcDbSymbolTableRecord
100
AcDbLayerTableRecord
  2
05___PRT_DEF_DTM_CSYS
 70
0
 62
7
  6
CONTINUOUS
370
-3
390
F
  0
LAYER
  5
204
100
AcDbSymbolTableRecord
100
AcDbLayerTableRecord
  2
06___PRT_ALL_SURFS
 70
0
 62
7
  6
CONTINUOUS
370
-3
390
F
  0
LAYER
  5
205
100
AcDbSymbolTableRecord
100
AcDbLayerTableRecord
  2
BALLOONS
 70
0
 62
7
  6
CONTINUOUS
370
-3
390
F
  0
ENDTAB
  0
TABLE
  2
STYLE
  5
3
100
AcDbSymbolTable
 70
1
  0
STYLE
  5
11
100
AcDbSymbolTableRecord
100
AcDbTextStyleTableRecord
  2
STANDARD
 70
0
 40
0.0
 41
1.0
 50
0.0
 71
0
 42
0.2
  3
veramono.ttf
  4

  0
STYLE
  5
206
100
AcDbSymbolTableRecord
100
AcDbTextStyleTableRecord
  2
TEXTSTYLE_1
 70
0
 40
0.0
 41
0.8
 50
0.0
 71
0
 42
0.2
  3
gdt
  4

  0
STYLE
  5
207
100
AcDbSymbolTableRecord
100
AcDbTextStyleTableRecord
  2
TEXTSTYLE_2
 70
0
 40
0.0
 41
1.0
 50
0.0
 71
0
 42
0.2
  3
veramono.ttf
  4

  0
STYLE
  5
208
100
AcDbSymbolTableRecord
100
AcDbTextStyleTableRecord
  2
TEXTSTYLE_3
 70
0
 40
0.0
 41
1.0
 50
0.0
 71
0
 42
0.2
  3
veramono.ttf
  4

  0
STYLE
  5
209
100
AcDbSymbolTableRecord
100
AcDbTextStyleTableRecord
  2
TEXTSTYLE_4
 70
0
 40
0.0
 41
1.0
 50
0.0
 71
0
 42
0.2
  3
veramono.ttf
  4

  0
STYLE
  5
20A
100
AcDbSymbolTableRecord
100
AcDbTextStyleTableRecord
  2
TEXTSTYLE_5
 70
0
 40
0.0
 41
1.0
 50
0.0
 71
0
 42
0.2
  3
veramono.ttf
  4

  0
STYLE
  5
20B
100
AcDbSymbolTableRecord
100
AcDbTextStyleTableRecord
  2
TEXTSTYLE_6
 70
0
 40
0.0
 41
1.0
 50
0.0
 71
0
 42
0.2
  3
veramono.ttf
  4

  0
STYLE
  5
20C
100
AcDbSymbolTableRecord
100
AcDbTextStyleTableRecord
  2
TEXTSTYLE_7
 70
0
 40
0.0
 41
0.81
 50
0.0
 71
0
 42
0.2
  3
gdt
  4

  0
ENDTAB
  0
TABLE
  2
VIEW
  5
6
100
AcDbSymbolTable
 70
0
  0
ENDTAB
  0
TABLE
  2
UCS
  5
7
100
AcDbSymbolTable
 70
0
  0
ENDTAB
  0
TABLE
  2
APPID
  5
9
100
AcDbSymbolTable
 70
1
  0
APPID
  5
20D
100
AcDbSymbolTableRecord
100
AcDbRegAppTableRecord
  2
ACAD
 70
0
  0
ENDTAB
  0
TABLE
  2
BLOCK_RECORD
  5
1
100
AcDbSymbolTable
 70
0
  0
BLOCK_RECORD
  5
20E
100
AcDbSymbolTableRecord
100
AcDbBlockTableRecord
  2
*Model_Space
  0
BLOCK_RECORD
  5
20F
100
AcDbSymbolTableRecord
100
AcDbBlockTableRecord
  2
*Paper_Space
  0
BLOCK_RECORD
  5
210
100
AcDbSymbolTableRecord
100
AcDbBlockTableRecord
  2
_FILLED
  0
BLOCK_RECORD
  5
211
100
AcDbSymbolTableRecord
100
AcDbBlockTableRecord
  2
*D0
  0
BLOCK_RECORD
  5
212
100
AcDbSymbolTableRecord
100
AcDbBlockTableRecord
  2
*D1
  0
BLOCK_RECORD
  5
213
100
AcDbSymbolTableRecord
100
AcDbBlockTableRecord
  2
*D2
  0
BLOCK_RECORD
  5
214
100
AcDbSymbolTableRecord
100
AcDbBlockTableRecord
  2
*D3
  0
BLOCK_RECORD
  5
215
100
AcDbSymbolTableRecord
100
AcDbBlockTableRecord
  2
*D4
  0
BLOCK_RECORD
  5
216
100
AcDbSymbolTableRecord
100
AcDbBlockTableRecord
  2
*D5
  0
BLOCK_RECORD
  5
217
100
AcDbSymbolTableRecord
100
AcDbBlockTableRecord
  2
*D6
  0
BLOCK_RECORD
  5
218
100
AcDbSymbolTableRecord
100
AcDbBlockTableRecord
  2
*D7
  0
BLOCK_RECORD
  5
219
100
AcDbSymbolTableRecord
100
AcDbBlockTableRecord
  2
*D8
  0
BLOCK_RECORD
  5
21A
100
AcDbSymbolTableRecord
100
AcDbBlockTableRecord
  2
*D9
  0
BLOCK_RECORD
  5
21B
100
AcDbSymbolTableRecord
100
AcDbBlockTableRecord
  2
*D10
  0
BLOCK_RECORD
  5
21C
100
AcDbSymbolTableRecord
100
AcDbBlockTableRecord
  2
*D11
  0
BLOCK_RECORD
  5
21D
100
AcDbSymbolTableRecord
100
AcDbBlockTableRecord
  2
*D12
  0
BLOCK_RECORD
  5
21E
100
AcDbSymbolTableRecord
100
AcDbBlockTableRecord
  2
*D13
  0
BLOCK_RECORD
  5
21F
100
AcDbSymbolTableRecord
100
AcDbBlockTableRecord
  2
*D14
  0
BLOCK_RECORD
  5
220
100
AcDbSymbolTableRecord
100
AcDbBlockTableRecord
  2
*D15
  0
BLOCK_RECORD
  5
221
100
AcDbSymbolTableRecord
100
AcDbBlockTableRecord
  2
*D16
  0
BLOCK_RECORD
  5
222
100
AcDbSymbolTableRecord
100
AcDbBlockTableRecord
  2
*D17
  0
BLOCK_RECORD
  5
223
100
AcDbSymbolTableRecord
100
AcDbBlockTableRecord
  2
*D18
  0
BLOCK_RECORD
  5
224
100
AcDbSymbolTableRecord
100
AcDbBlockTableRecord
  2
*D19
  0
BLOCK_RECORD
  5
225
100
AcDbSymbolTableRecord
100
AcDbBlockTableRecord
  2
*D20
  0
BLOCK_RECORD
  5
226
100
AcDbSymbolTableRecord
100
AcDbBlockTableRecord
  2
*D21
  0
BLOCK_RECORD
  5
227
100
AcDbSymbolTableRecord
100
AcDbBlockTableRecord
  2
*D22
  0
BLOCK_RECORD
  5
228
100
AcDbSymbolTableRecord
100
AcDbBlockTableRecord
  2
*D23
  0
BLOCK_RECORD
  5
229
100
AcDbSymbolTableRecord
100
AcDbBlockTableRecord
  2
*D24
  0
BLOCK_RECORD
  5
22A
100
AcDbSymbolTableRecord
100
AcDbBlockTableRecord
  2
*D25
  0
BLOCK_RECORD
  5
22B
100
AcDbSymbolTableRecord
100
AcDbBlockTableRecord
  2
*D26
  0
BLOCK_RECORD
  5
22C
100
AcDbSymbolTableRecord
100
AcDbBlockTableRecord
  2
*D27
  0
BLOCK_RECORD
  5
22D
100
AcDbSymbolTableRecord
100
AcDbBlockTableRecord
  2
*D28
  0
BLOCK_RECORD
  5
22E
100
AcDbSymbolTableRecord
100
AcDbBlockTableRecord
  2
*D29
  0
BLOCK_RECORD
  5
22F
100
AcDbSymbolTableRecord
100
AcDbBlockTableRecord
  2
*D30
  0
BLOCK_RECORD
  5
230
100
AcDbSymbolTableRecord
100
AcDbBlockTableRecord
  2
*D31
  0
BLOCK_RECORD
  5
231
100
AcDbSymbolTableRecord
100
AcDbBlockTableRecord
  2
*D32
  0
BLOCK_RECORD
  5
232
100
AcDbSymbolTableRecord
100
AcDbBlockTableRecord
  2
*T1
  0
BLOCK_RECORD
  5
233
100
AcDbSymbolTableRecord
100
AcDbBlockTableRecord
  2
*T2
  0
BLOCK_RECORD
  5
234
100
AcDbSymbolTableRecord
100
AcDbBlockTableRecord
  2
*T3
  0
BLOCK_RECORD
  5
235
100
AcDbSymbolTableRecord
100
AcDbBlockTableRecord
  2
*T4
  0
ENDTAB
  0
TABLE
  2
DIMSTYLE
  5
A
100
AcDbSymbolTable
 70
1
100
AcDbDimStyleTable
 71
0
  0
DIMSTYLE
105
236
100
AcDbSymbolTableRecord
100
AcDbDimStyleTableRecord
  2
STANDARD
 70
0
  3

  4

 40
1.0
 41
0.1875
 42
0.0625
 43
0.38
 44
0.18
 45
0.0
 46
0.0
 47
0.001
 48
0.001
140
0.15625
141
0.09
142
0.0
143
25.4
144
1.0
145
0.0
146
1.0
147
0.09
 71
0.0
 72
0.0
 73
1
 74
1
 75
0
 76
0
 77
0
 78
4
170
0
171
2
172
0
173
0
174
0
175
0
176
0
177
0
178
0
270
2
271
3
272
3
273
2
274
2
275
0
280
0
281
0
282
0
283
1
284
4
285
0
286
0
287
3
288
0
340
11
341
210
342
210
343
210
344
210
  0
DIMSTYLE
105
237
100
AcDbSymbolTableRecord
100
AcDbDimStyleTableRecord
  2
DIMSTYLE_1
 70
0
  3

  4

 40
1.0
 41
0.1875
 42
0.0625
 43
0.38
 44
0.18
 45
0.0
 46
0.0
 47
0.0
 48
0.0
140
0.15625
141
0.09
142
0.0
143
25.4
144
1.0
145
0.0
146
1.0
147
0.09
 71
0.0
 72
0.0
 73
1
 74
1
 75
0
 76
0
 77
0
 78
4
170
0
171
2
172
0
173
0
174
0
175
0
176
0
177
0
178
0
270
2
271
3
272
3
273
2
274
2
275
0
280
0
281
0
282
0
283
1
284
4
285
0
286
0
287
3
288
0
340
11
341
210
342
210
343
210
344
210
  0
DIMSTYLE
105
238
100
AcDbSymbolTableRecord
100
AcDbDimStyleTableRecord
  2
DIMSTYLE_2
 70
0
  3

  4

 40
1.0
 41
0.1875
 42
0.0625
 43
0.38
 44
0.18
 45
0.0
 46
0.0
 47
0.0
 48
0.0
140
0.15625
141
0.09
142
0.0
143
25.4
144
1.0
145
0.0
146
1.0
147
0.09
 71
0.0
 72
0.0
 73
1
 74
1
 75
0
 76
0
 77
0
 78
4
170
0
171
2
172
0
173
0
174
0
175
0
176
0
177
0
178
0
270
2
271
3
272
3
273
2
274
2
275
0
280
0
281
0
282
0
283
1
284
4
285
0
286
0
287
3
288
0
340
11
341
210
342
210
343
210
344
210
  0
DIMSTYLE
105
239
100
AcDbSymbolTableRecord
100
AcDbDimStyleTableRecord
  2
DIMSTYLE_3
 70
0
  3

  4

 40
1.0
 41
0.1875
 42
0.0625
 43
0.38
 44
0.18
 45
0.0
 46
0.0
 47
0.0
 48
0.0
140
0.15625
141
0.09
142
0.0
143
25.4
144
1.0
145
0.0
146
1.0
147
0.09
 71
0.0
 72
0.0
 73
1
 74
1
 75
0
 76
0
 77
0
 78
4
170
0
171
2
172
0
173
0
174
0
175
0
176
0
177
0
178
0
270
2
271
3
272
3
273
2
274
2
275
0
280
0
281
0
282
0
283
1
284
4
285
0
286
0
287
3
288
0
340
11
341
210
342
210
343
210
344
210
  0
DIMSTYLE
105
23A
100
AcDbSymbolTableRecord
100
AcDbDimStyleTableRecord
  2
DIMSTYLE_4
 70
0
  3

  4

 40
1.0
 41
0.1875
 42
0.0625
 43
0.38
 44
0.18
 45
0.0
 46
0.0
 47
0.0
 48
0.0
140
0.15625
141
0.09
142
0.0
143
25.4
144
1.0
145
0.0
146
1.0
147
0.09
 71
0.0
 72
0.0
 73
1
 74
1
 75
0
 76
0
 77
0
 78
4
170
0
171
2
172
0
173
0
174
0
175
0
176
0
177
0
178
0
270
2
271
3
272
3
273
2
274
2
275
0
280
0
281
0
282
0
283
1
284
4
285
0
286
0
287
3
288
0
340
11
341
210
342
210
343
210
344
210
  0
ENDTAB
  0
ENDSEC
  0
SECTION
  2
BLOCKS
  0
BLOCK
  5
20
100
AcDbEntity
  8
0
100
AcDbBlockBegin
  2
*Model_Space
 70
0
 10
0.0
 20
0.0
 30
0.0
  3
*Model_Space
  1

  0
ENDBLK
  5
21
100
AcDbEntity
  8
0
100
AcDbBlockEnd
  0
BLOCK
  5
1C
100
AcDbEntity
  8
0
100
AcDbBlockBegin
  2
*Paper_Space
 70
0
 10
0.0
 20
0.0
 30
0.0
  3
*Paper_Space
  1

  0
ENDBLK
  5
1D
100
AcDbEntity
  8
0
100
AcDbBlockEnd
  0
BLOCK
  5
23B
100
AcDbEntity
  8
0
100
AcDbBlockBegin
  2
_FILLED
 70
64
 10
0.0
 20
0.0
  3
_FILLED
  1

  0
SOLID
  5
23C
100
AcDbEntity
  8
0
  6
BYBLOCK
 62
0
100
AcDbTrace
 10
0.0
 20
0.0
 11
-1.0
 21
0.1666666667
 12
-1.0
 22
-0.1666666667
 13
-1.0
 23
-0.1666666667
  0
ENDBLK
  5
23D
100
AcDbEntity
  8
0
  6
BYBLOCK
 62
0
100
AcDbBlockEnd
  0
BLOCK
  5
23E
100
AcDbEntity
  8
0
100
AcDbBlockBegin
 62
2
  6
CONTINUOUS
  2
*D0
 70
65
 10
0.0
 20
0.0
  3
*D0
  1

  0
MTEXT
  5
23F
100
AcDbEntity
  8
0
100
AcDbMText
 62
2
  6
CONTINUOUS
  7
STANDARD
 71
1
 72
1
 10
12.234375
 20
14.2595117372
 30
0.0
 11
0.0
 21
1.0
 31
0.0
 44
0.9
  1
6.750
 40
0.15625
 41
0.6467490842
  0
LINE
  5
240
100
AcDbEntity
  8
0
100
AcDbLine
 62
2
  6
CONTINUOUS
 10
12.3125
 20
12.6780133929
 11
12.3125
 21
14.1813867372
  0
ENDBLK
  5
241
100
AcDbEntity
  8
0
  6
BYBLOCK
 62
0
100
AcDbBlockEnd
  0
BLOCK
  5
242
100
AcDbEntity
  8
0
100
AcDbBlockBegin
 62
2
  6
CONTINUOUS
  2
*D1
 70
65
 10
0.0
 20
0.0
  3
*D1
  1

  0
MTEXT
  5
243
100
AcDbEntity
  8
0
100
AcDbMText
 62
2
  6
CONTINUOUS
  7
STANDARD
 71
1
 72
1
 10
13.1988425964
 20
13.6936383929
 30
0.0
 11
1.0
 21
0.0
 31
0.0
 44
0.9
  1
8.500
 40
0.15625
 41
0.6467490842
  0
LINE
  5
244
100
AcDbEntity
  8
0
100
AcDbLine
 62
2
  6
CONTINUOUS
 10
11.375
 20
13.6155133929
 11
13.1207175964
 21
13.6155133929
  0
ENDBLK
  5
245
100
AcDbEntity
  8
0
  6
BYBLOCK
 62
0
100
AcDbBlockEnd
  0
BLOCK
  5
246
100
AcDbEntity
  8
0
100
AcDbBlockBegin
 62
2
  6
CONTINUOUS
  2
*D2
 70
65
 10
0.0
 20
0.0
  3
*D2
  1

  0
MTEXT
  5
247
100
AcDbEntity
  8
0
100
AcDbMText
 62
2
  6
CONTINUOUS
  7
STANDARD
 71
1
 72
1
 10
13.1988425964
 20
5.5061383929
 30
0.0
 11
1.0
 21
0.0
 31
0.0
 44
0.9
  1
.313
 40
0.15625
 41
0.5173992674
  0
LINE
  5
248
100
AcDbEntity
  8
0
100
AcDbLine
 62
2
  6
CONTINUOUS
 10
11.0
 20
5.4280133929
 11
13.1207175964
 21
5.4280133929
  0
ENDBLK
  5
249
100
AcDbEntity
  8
0
  6
BYBLOCK
 62
0
100
AcDbBlockEnd
  0
BLOCK
  5
24A
100
AcDbEntity
  8
0
100
AcDbBlockBegin
 62
2
  6
CONTINUOUS
  2
*D3
 70
65
 10
0.0
 20
0.0
  3
*D3
  1

  0
MTEXT
  5
24B
100
AcDbEntity
  8
0
100
AcDbMText
 62
2
  6
CONTINUOUS
  7
STANDARD
 71
1
 72
1
 10
13.1988425964
 20
6.9436383929
 30
0.0
 11
1.0
 21
0.0
 31
0.0
 44
0.9
  1
1.750
 40
0.15625
 41
0.6467490842
  0
LINE
  5
24C
100
AcDbEntity
  8
0
100
AcDbLine
 62
2
  6
CONTINUOUS
 10
12.0625
 20
6.8655133929
 11
13.1207175964
 21
6.8655133929
  0
ENDBLK
  5
24D
100
AcDbEntity
  8
0
  6
BYBLOCK
 62
0
100
AcDbBlockEnd
  0
BLOCK
  5
24E
100
AcDbEntity
  8
0
100
AcDbBlockBegin
 62
2
  6
CONTINUOUS
  2
*D4
 70
65
 10
0.0
 20
0.0
  3
*D4
  1

  0
MTEXT
  5
24F
100
AcDbEntity
  8
0
100
AcDbMText
 62
2
  6
CONTINUOUS
  7
STANDARD
 71
1
 72
1
 10
13.1988425964
 20
9.4436383929
 30
0.0
 11
1.0
 21
0.0
 31
0.0
 44
0.9
  1
4.250
 40
0.15625
 41
0.6467490842
  0
LINE
  5
250
100
AcDbEntity
  8
0
100
AcDbLine
 62
2
  6
CONTINUOUS
 10
12.0625
 20
9.3655133929
 11
13.1207175964
 21
9.3655133929
  0
ENDBLK
  5
251
100
AcDbEntity
  8
0
  6
BYBLOCK
 62
0
100
AcDbBlockEnd
  0
BLOCK
  5
252
100
AcDbEntity
  8
0
100
AcDbBlockBegin
 62
2
  6
CONTINUOUS
  2
*D5
 70
65
 10
0.0
 20
0.0
  3
*D5
  1

  0
MTEXT
  5
253
100
AcDbEntity
  8
0
100
AcDbMText
 62
2
  6
CONTINUOUS
  7
STANDARD
 71
1
 72
1
 10
13.1988425964
 20
11.9436383929
 30
0.0
 11
1.0
 21
0.0
 31
0.0
 44
0.9
  1
6.750
 40
0.15625
 41
0.6467490842
  0
LINE
  5
254
100
AcDbEntity
  8
0
100
AcDbLine
 62
2
  6
CONTINUOUS
 10
12.0625
 20
11.8655133929
 11
13.1207175964
 21
11.8655133929
  0
ENDBLK
  5
255
100
AcDbEntity
  8
0
  6
BYBLOCK
 62
0
100
AcDbBlockEnd
  0
BLOCK
  5
256
100
AcDbEntity
  8
0
100
AcDbBlockBegin
 62
2
  6
CONTINUOUS
  2
*D6
 70
65
 10
0.0
 20
0.0
  3
*D6
  1

  0
MTEXT
  5
257
100
AcDbEntity
  8
0
100
AcDbMText
 62
2
  6
CONTINUOUS
  7
STANDARD
 71
1
 72
1
 10
13.1988425964
 20
13.3811383929
 30
0.0
 11
1.0
 21
0.0
 31
0.0
 44
0.9
  1
8.188
 40
0.15625
 41
0.6467490842
  0
LINE
  5
258
100
AcDbEntity
  8
0
100
AcDbLine
 62
2
  6
CONTINUOUS
 10
11.0
 20
13.3030133929
 11
13.1207175964
 21
13.3030133929
  0
ENDBLK
  5
259
100
AcDbEntity
  8
0
  6
BYBLOCK
 62
0
100
AcDbBlockEnd
  0
BLOCK
  5
25A
100
AcDbEntity
  8
0
100
AcDbBlockBegin
 62
2
  6
CONTINUOUS
  2
*D7
 70
65
 10
0.0
 20
0.0
  3
*D7
  1

  0
MTEXT
  5
25B
100
AcDbEntity
  8
0
100
AcDbMText
 62
2
  6
CONTINUOUS
  7
STANDARD
 71
3
 72
1
 10
5.1476903974
 20
7.1936383929
 30
0.0
 11
1.0
 21
0.0
 31
0.0
 44
0.9
  1
2.000
 40
0.15625
 41
0.6467490842
  0
LINE
  5
25C
100
AcDbEntity
  8
0
100
AcDbLine
 62
2
  6
CONTINUOUS
 10
6.449
 20
7.1155133929
 11
5.2258153974
 21
7.1155133929
  0
ENDBLK
  5
25D
100
AcDbEntity
  8
0
  6
BYBLOCK
 62
0
100
AcDbBlockEnd
  0
BLOCK
  5
25E
100
AcDbEntity
  8
0
100
AcDbBlockBegin
 62
2
  6
CONTINUOUS
  2
*D8
 70
65
 10
0.0
 20
0.0
  3
*D8
  1

  0
MTEXT
  5
25F
100
AcDbEntity
  8
0
100
AcDbMText
 62
2
  6
CONTINUOUS
  7
STANDARD
 71
3
 72
1
 10
5.1476903974
 20
9.9436383929
 30
0.0
 11
1.0
 21
0.0
 31
0.0
 44
0.9
  1
4.750
 40
0.15625
 41
0.6467490842
  0
LINE
  5
260
100
AcDbEntity
  8
0
100
AcDbLine
 62
2
  6
CONTINUOUS
 10
8.875
 20
9.8655133929
 11
5.2258153974
 21
9.8655133929
  0
ENDBLK
  5
261
100
AcDbEntity
  8
0
  6
BYBLOCK
 62
0
100
AcDbBlockEnd
  0
BLOCK
  5
262
100
AcDbEntity
  8
0
100
AcDbBlockBegin
 62
2
  6
CONTINUOUS
  2
*D9
 70
65
 10
0.0
 20
0.0
  3
*D9
  1

  0
MTEXT
  5
263
100
AcDbEntity
  8
0
100
AcDbMText
 62
2
  6
CONTINUOUS
  7
STANDARD
 71
1
 72
1
 10
13.1988425964
 20
5.1936383929
 30
0.0
 11
1.0
 21
0.0
 31
0.0
 44
0.9
  1
.000
 40
0.15625
 41
0.5173992674
  0
LINE
  5
264
100
AcDbEntity
  8
0
100
AcDbLine
 62
2
  6
CONTINUOUS
 10
11.375
 20
5.1155133929
 11
13.1207175964
 21
5.1155133929
  0
ENDBLK
  5
265
100
AcDbEntity
  8
0
  6
BYBLOCK
 62
0
100
AcDbBlockEnd
  0
BLOCK
  5
266
100
AcDbEntity
  8
0
100
AcDbBlockBegin
 62
2
  6
CONTINUOUS
  2
*D10
 70
65
 10
0.0
 20
0.0
  3
*D10
  1

  0
MTEXT
  5
267
100
AcDbEntity
  8
0
100
AcDbMText
 62
2
  6
CONTINUOUS
  7
STANDARD
 71
1
 72
1
 10
5.796875
 20
14.2595117372
 30
0.0
 11
0.0
 21
1.0
 31
0.0
 44
0.9
  1
.313
 40
0.15625
 41
0.5173992674
  0
LINE
  5
268
100
AcDbEntity
  8
0
100
AcDbLine
 62
2
  6
CONTINUOUS
 10
5.875
 20
11.9280133929
 11
5.875
 21
14.1813867372
  0
ENDBLK
  5
269
100
AcDbEntity
  8
0
  6
BYBLOCK
 62
0
100
AcDbBlockEnd
  0
BLOCK
  5
26A
100
AcDbEntity
  8
0
100
AcDbBlockBegin
 62
2
  6
CONTINUOUS
  2
*D11
 70
65
 10
0.0
 20
0.0
  3
*D11
  1

  0
MTEXT
  5
26B
100
AcDbEntity
  8
0
100
AcDbMText
 62
2
  6
CONTINUOUS
  7
STANDARD
 71
1
 72
1
 10
6.859375
 20
14.2595117372
 30
0.0
 11
0.0
 21
1.0
 31
0.0
 44
0.9
  1
1.375
 40
0.15625
 41
0.6467490842
  0
LINE
  5
26C
100
AcDbEntity
  8
0
100
AcDbLine
 62
2
  6
CONTINUOUS
 10
6.9375
 20
13.3655133929
 11
6.9375
 21
14.1813867372
  0
ENDBLK
  5
26D
100
AcDbEntity
  8
0
  6
BYBLOCK
 62
0
100
AcDbBlockEnd
  0
BLOCK
  5
26E
100
AcDbEntity
  8
0
100
AcDbBlockBegin
 62
2
  6
CONTINUOUS
  2
*D12
 70
65
 10
0.0
 20
0.0
  3
*D12
  1

  0
MTEXT
  5
26F
100
AcDbEntity
  8
0
100
AcDbMText
 62
2
  6
CONTINUOUS
  7
STANDARD
 71
1
 72
1
 10
8.859375
 20
14.2595117372
 30
0.0
 11
0.0
 21
1.0
 31
0.0
 44
0.9
  1
3.375
 40
0.15625
 41
0.6467490842
  0
LINE
  5
270
100
AcDbEntity
  8
0
100
AcDbLine
 62
2
  6
CONTINUOUS
 10
8.9375
 20
13.3655133929
 11
8.9375
 21
14.1813867372
  0
ENDBLK
  5
271
100
AcDbEntity
  8
0
  6
BYBLOCK
 62
0
100
AcDbBlockEnd
  0
BLOCK
  5
272
100
AcDbEntity
  8
0
100
AcDbBlockBegin
 62
2
  6
CONTINUOUS
  2
*D13
 70
65
 10
0.0
 20
0.0
  3
*D13
  1

  0
MTEXT
  5
273
100
AcDbEntity
  8
0
100
AcDbMText
 62
2
  6
CONTINUOUS
  7
STANDARD
 71
1
 72
1
 10
10.859375
 20
14.2595117372
 30
0.0
 11
0.0
 21
1.0
 31
0.0
 44
0.9
  1
5.375
 40
0.15625
 41
0.6467490842
  0
LINE
  5
274
100
AcDbEntity
  8
0
100
AcDbLine
 62
2
  6
CONTINUOUS
 10
10.9375
 20
13.3655133929
 11
10.9375
 21
14.1813867372
  0
ENDBLK
  5
275
100
AcDbEntity
  8
0
  6
BYBLOCK
 62
0
100
AcDbBlockEnd
  0
BLOCK
  5
276
100
AcDbEntity
  8
0
100
AcDbBlockBegin
 62
2
  6
CONTINUOUS
  2
*D14
 70
65
 10
0.0
 20
0.0
  3
*D14
  1

  0
MTEXT
  5
277
100
AcDbEntity
  8
0
100
AcDbMText
 62
2
  6
CONTINUOUS
  7
STANDARD
 71
1
 72
1
 10
8.234375
 20
14.2595117372
 30
0.0
 11
0.0
 21
1.0
 31
0.0
 44
0.9
  1
2.750
 40
0.15625
 41
0.6467490842
  0
LINE
  5
278
100
AcDbEntity
  8
0
100
AcDbLine
 62
2
  6
CONTINUOUS
 10
8.3125
 20
11.9280133929
 11
8.3125
 21
14.1813867372
  0
ENDBLK
  5
279
100
AcDbEntity
  8
0
  6
BYBLOCK
 62
0
100
AcDbBlockEnd
  0
BLOCK
  5
27A
100
AcDbEntity
  8
0
100
AcDbBlockBegin
 62
2
  6
CONTINUOUS
  2
*D15
 70
65
 10
0.0
 20
0.0
  3
*D15
  1

  0
MTEXT
  5
27B
100
AcDbEntity
  8
0
100
AcDbMText
 62
2
  6
CONTINUOUS
  7
STANDARD
 71
1
 72
1
 10
10.484375
 20
14.2595117372
 30
0.0
 11
0.0
 21
1.0
 31
0.0
 44
0.9
  1
5.000
 40
0.15625
 41
0.6467490842
  0
LINE
  5
27C
100
AcDbEntity
  8
0
100
AcDbLine
 62
2
  6
CONTINUOUS
 10
10.5625
 20
11.9280133929
 11
10.5625
 21
14.1813867372
  0
ENDBLK
  5
27D
100
AcDbEntity
  8
0
  6
BYBLOCK
 62
0
100
AcDbBlockEnd
  0
BLOCK
  5
27E
100
AcDbEntity
  8
0
100
AcDbBlockBegin
 62
2
  6
CONTINUOUS
  2
*D16
 70
65
 10
0.0
 20
0.0
  3
*D16
  1

  0
MTEXT
  5
27F
100
AcDbEntity
  8
0
100
AcDbMText
 62
2
  6
CONTINUOUS
  7
STANDARD
 71
3
 72
1
 10
7.359375
 20
4.5801572848
 30
0.0
 11
0.0
 21
1.0
 31
0.0
 44
0.9
  1
1.875
 40
0.15625
 41
0.6467490842
  0
LINE
  5
280
100
AcDbEntity
  8
0
100
AcDbLine
 62
2
  6
CONTINUOUS
 10
7.4375
 20
6.8280133929
 11
7.4375
 21
4.6582822848
  0
ENDBLK
  5
281
100
AcDbEntity
  8
0
  6
BYBLOCK
 62
0
100
AcDbBlockEnd
  0
BLOCK
  5
282
100
AcDbEntity
  8
0
100
AcDbBlockBegin
 62
2
  6
CONTINUOUS
  2
*D17
 70
65
 10
0.0
 20
0.0
  3
*D17
  1

  0
MTEXT
  5
283
100
AcDbEntity
  8
0
100
AcDbMText
 62
2
  6
CONTINUOUS
  7
STANDARD
 71
3
 72
1
 10
10.023375
 20
4.5801572848
 30
0.0
 11
0.0
 21
1.0
 31
0.0
 44
0.9
  1
4.539
 40
0.15625
 41
0.6467490842
  0
LINE
  5
284
100
AcDbEntity
  8
0
100
AcDbLine
 62
2
  6
CONTINUOUS
 10
10.1015
 20
5.8915133929
 11
10.1015
 21
4.6582822848
  0
ENDBLK
  5
285
100
AcDbEntity
  8
0
  6
BYBLOCK
 62
0
100
AcDbBlockEnd
  0
BLOCK
  5
286
100
AcDbEntity
  8
0
100
AcDbBlockBegin
 62
2
  6
CONTINUOUS
  2
*D18
 70
65
 10
0.0
 20
0.0
  3
*D18
  1

  0
MTEXT
  5
287
100
AcDbEntity
  8
0
100
AcDbMText
 62
2
  6
CONTINUOUS
  7
STANDARD
 71
1
 72
1
 10
5.484375
 20
14.2572433775
 30
0.0
 11
0.0
 21
1.0
 31
0.0
 44
0.9
  1
.000
 40
0.15625
 41
0.5173992674
  0
LINE
  5
288
100
AcDbEntity
  8
0
100
AcDbLine
 62
2
  6
CONTINUOUS
 10
5.5625
 20
12.6780133929
 11
5.5625
 21
14.1791183775
  0
ENDBLK
  5
289
100
AcDbEntity
  8
0
  6
BYBLOCK
 62
0
100
AcDbBlockEnd
  0
BLOCK
  5
28A
100
AcDbEntity
  8
0
100
AcDbBlockBegin
 62
2
  6
CONTINUOUS
  2
*D19
 70
65
 10
0.0
 20
0.0
  3
*D19
  1

  0
MTEXT
  5
28B
100
AcDbEntity
  8
0
100
AcDbMText
 62
2
  6
CONTINUOUS
  7
TEXTSTYLE_1
 71
1
 72
1
 10
13.0425174191
 20
7.6642361475
 30
0.0
 11
1.0
 21
0.0
 31
0.0
 44
0.9
  1
{\Fgdt;n}\Fveramono.ttf;.203
 40
0.15625
 41
0.7257326007
  0
LINE
  5
28C
100
AcDbEntity
  8
0
100
AcDbLine
 62
2
  6
CONTINUOUS
 10
12.0750979096
 20
6.9337962895
 11
12.7925174191
 21
7.5861111475
  0
LINE
  5
28D
100
AcDbEntity
  8
0
100
AcDbLine
 62
2
  6
CONTINUOUS
 10
12.7925174191
 20
7.5861111475
 11
12.9643924191
 21
7.5861111475
  0
INSERT
  5
28E
100
AcDbEntity
  8
0
100
AcDbBlockReference
 62
2
  6
CONTINUOUS
  2
_FILLED
 10
12.0750979096
 20
6.9337962895
 41
0.1875
 42
0.1875
 43
0.1875
 50
222.2787304158
  0
ENDBLK
  5
28F
100
AcDbEntity
  8
0
  6
BYBLOCK
 62
0
100
AcDbBlockEnd
  0
BLOCK
  5
290
100
AcDbEntity
  8
0
100
AcDbBlockBegin
 62
2
  6
CONTINUOUS
  2
*D20
 70
65
 10
0.0
 20
0.0
  3
*D20
  1

  0
MTEXT
  5
291
100
AcDbEntity
  8
0
100
AcDbMText
 62
2
  6
CONTINUOUS
  7
TEXTSTYLE_1
 71
1
 72
1
 10
13.0583378477
 20
12.6050975166
 30
0.0
 11
1.0
 21
0.0
 31
0.0
 44
0.9
  1
{\Fgdt;n}\Fveramono.ttf;.480
 40
0.15625
 41
0.7257326007
  0
LINE
  5
292
100
AcDbEntity
  8
0
100
AcDbLine
 62
2
  6
CONTINUOUS
 10
10.7478377242
 20
12.0179926636
 11
11.3664999669
 21
12.5269725166
  0
LINE
  5
293
100
AcDbEntity
  8
0
100
AcDbLine
 62
2
  6
CONTINUOUS
 10
11.3664999669
 20
12.5269725166
 11
12.9802128477
 21
12.5269725166
  0
INSERT
  5
294
100
AcDbEntity
  8
0
100
AcDbBlockReference
 62
2
  6
CONTINUOUS
  2
_FILLED
 10
10.7478377242
 20
12.0179926636
 41
0.1875
 42
0.1875
 43
0.1875
 50
219.4444861134
  0
ENDBLK
  5
295
100
AcDbEntity
  8
0
  6
BYBLOCK
 62
0
100
AcDbBlockEnd
  0
BLOCK
  5
296
100
AcDbEntity
  8
0
100
AcDbBlockBegin
 62
2
  6
CONTINUOUS
  2
*D21
 70
65
 10
0.0
 20
0.0
  3
*D21
  1

  0
MTEXT
  5
297
100
AcDbEntity
  8
0
100
AcDbMText
 62
2
  6
CONTINUOUS
  7
STANDARD
 71
1
 72
1
 10
10.92265625
 20
10.9916597682
 30
0.0
 11
1.0
 21
0.0
 31
0.0
 44
0.9
  1
1.125
 40
0.15625
 41
0.6467490842
  0
LINE
  5
298
100
AcDbEntity
  8
0
100
AcDbLine
 62
2
  6
CONTINUOUS
 10
9.14
 20
10.3011336818
 11
9.14
 21
11.0385347682
  0
LINE
  5
299
100
AcDbEntity
  8
0
100
AcDbLine
 62
2
  6
CONTINUOUS
 10
10.265
 20
10.3011336818
 11
10.265
 21
11.0385347682
  0
LINE
  5
29A
100
AcDbEntity
  8
0
100
AcDbLine
 62
2
  6
CONTINUOUS
 10
9.14
 20
10.9135347682
 11
9.7025
 21
10.9135347682
  0
LINE
  5
29B
100
AcDbEntity
  8
0
100
AcDbLine
 62
2
  6
CONTINUOUS
 10
10.265
 20
10.9135347682
 11
9.7025
 21
10.9135347682
  0
LINE
  5
29C
100
AcDbEntity
  8
0
100
AcDbLine
 62
2
  6
CONTINUOUS
 10
9.7025
 20
10.9135347682
 11
10.84453125
 21
10.9135347682
  0
INSERT
  5
29D
100
AcDbEntity
  8
0
100
AcDbBlockReference
 62
2
  6
CONTINUOUS
  2
_FILLED
 10
9.14
 20
10.9135347682
 41
0.1875
 42
0.1875
 43
0.1875
 50
180.0
  0
INSERT
  5
29E
100
AcDbEntity
  8
0
100
AcDbBlockReference
 62
2
  6
CONTINUOUS
  2
_FILLED
 10
10.265
 20
10.9135347682
 41
0.1875
 42
0.1875
 43
0.1875
  0
ENDBLK
  5
29F
100
AcDbEntity
  8
0
  6
BYBLOCK
 62
0
100
AcDbBlockEnd
  0
BLOCK
  5
2A0
100
AcDbEntity
  8
0
100
AcDbBlockBegin
 62
2
  6
CONTINUOUS
  2
*D22
 70
65
 10
0.0
 20
0.0
  3
*D22
  1

  0
MTEXT
  5
2A1
100
AcDbEntity
  8
0
100
AcDbMText
 62
2
  6
CONTINUOUS
  7
TEXTSTYLE_1
 71
3
 72
1
 10
8.7514989652
 20
10.9596978477
 30
0.0
 11
1.0
 21
0.0
 31
0.0
 44
0.9
  1
{\Fgdt;n}\Fveramono.ttf;1.350
 40
0.15625
 41
0.8550824176
  0
LINE
  5
2A2
100
AcDbEntity
  8
0
100
AcDbLine
 62
2
  6
CONTINUOUS
 10
9.3191800685
 20
10.421112916
 11
9.7025
 21
9.8655133929
  0
LINE
  5
2A3
100
AcDbEntity
  8
0
100
AcDbLine
 62
2
  6
CONTINUOUS
 10
9.7025
 20
9.8655133929
 11
9.0014989652
 21
10.8815728477
  0
LINE
  5
2A4
100
AcDbEntity
  8
0
100
AcDbLine
 62
2
  6
CONTINUOUS
 10
9.0014989652
 20
10.8815728477
 11
8.8296239652
 21
10.8815728477
  0
LINE
  5
2A5
100
AcDbEntity
  8
0
100
AcDbLine
 62
2
  6
CONTINUOUS
 10
10.0858199315
 20
9.3099138697
 11
9.7025
 21
9.8655133929
  0
INSERT
  5
2A6
100
AcDbEntity
  8
0
100
AcDbBlockReference
 62
2
  6
CONTINUOUS
  2
_FILLED
 10
9.3191800685
 20
10.421112916
 41
0.1875
 42
0.1875
 43
0.1875
 50
124.6026196856
  0
INSERT
  5
2A7
100
AcDbEntity
  8
0
100
AcDbBlockReference
 62
2
  6
CONTINUOUS
  2
_FILLED
 10
10.0858199315
 20
9.3099138697
 41
0.1875
 42
0.1875
 43
0.1875
 50
304.6026196856
  0
ENDBLK
  5
2A8
100
AcDbEntity
  8
0
  6
BYBLOCK
 62
0
100
AcDbBlockEnd
  0
BLOCK
  5
2A9
100
AcDbEntity
  8
0
100
AcDbBlockBegin
 62
2
  6
CONTINUOUS
  2
*D23
 70
65
 10
0.0
 20
0.0
  3
*D23
  1

  0
MTEXT
  5
2AA
100
AcDbEntity
  8
0
100
AcDbMText
 62
2
  6
CONTINUOUS
  7
STANDARD
 71
3
 72
1
 10
5.2117945364
 20
8.0381226159
 30
0.0
 11
1.0
 21
0.0
 31
0.0
 44
0.9
  1
.450
 40
0.15625
 41
0.5173992674
  0
LINE
  5
2AB
100
AcDbEntity
  8
0
100
AcDbLine
 62
2
  6
CONTINUOUS
 10
6.5635
 20
6.8905133929
 11
5.9679600993
 21
6.8905133929
  0
LINE
  5
2AC
100
AcDbEntity
  8
0
100
AcDbLine
 62
2
  6
CONTINUOUS
 10
6.5635
 20
7.3405133929
 11
5.9679600993
 21
7.3405133929
  0
LINE
  5
2AD
100
AcDbEntity
  8
0
100
AcDbLine
 62
2
  6
CONTINUOUS
 10
6.0929600993
 20
6.8905133929
 11
6.0929600993
 21
6.3905133929
  0
LINE
  5
2AE
100
AcDbEntity
  8
0
100
AcDbLine
 62
2
  6
CONTINUOUS
 10
6.0929600993
 20
7.3405133929
 11
6.0929600993
 21
7.9599976159
  0
LINE
  5
2AF
100
AcDbEntity
  8
0
100
AcDbLine
 62
2
  6
CONTINUOUS
 10
6.0929600993
 20
7.9599976159
 11
5.2899195364
 21
7.9599976159
  0
INSERT
  5
2B0
100
AcDbEntity
  8
0
100
AcDbBlockReference
 62
2
  6
CONTINUOUS
  2
_FILLED
 10
6.0929600993
 20
6.8905133929
 41
0.1875
 42
0.1875
 43
0.1875
 50
90.0
  0
INSERT
  5
2B1
100
AcDbEntity
  8
0
100
AcDbBlockReference
 62
2
  6
CONTINUOUS
  2
_FILLED
 10
6.0929600993
 20
7.3405133929
 41
0.1875
 42
0.1875
 43
0.1875
 50
270.0
  0
ENDBLK
  5
2B2
100
AcDbEntity
  8
0
  6
BYBLOCK
 62
0
100
AcDbBlockEnd
  0
BLOCK
  5
2B3
100
AcDbEntity
  8
0
100
AcDbBlockBegin
 62
2
  6
CONTINUOUS
  2
*D24
 70
65
 10
0.0
 20
0.0
  3
*D24
  1

  0
MTEXT
  5
2B4
100
AcDbEntity
  8
0
100
AcDbMText
 62
2
  6
CONTINUOUS
  7
STANDARD
 71
2
 72
1
 10
7.4375
 20
8.6408734291
 30
0.0
 11
1.0
 21
0.0
 31
0.0
 44
0.9
  1
1.852
 40
0.15625
 41
0.6467490842
  0
LINE
  5
2B5
100
AcDbEntity
  8
0
100
AcDbLine
 62
2
  6
CONTINUOUS
 10
8.3635
 20
7.1780133929
 11
8.3635
 21
8.6877484291
  0
LINE
  5
2B6
100
AcDbEntity
  8
0
100
AcDbLine
 62
2
  6
CONTINUOUS
 10
6.5115
 20
7.1780133929
 11
6.5115
 21
8.6877484291
  0
LINE
  5
2B7
100
AcDbEntity
  8
0
100
AcDbLine
 62
2
  6
CONTINUOUS
 10
8.3635
 20
8.5627484291
 11
7.8389995421
 21
8.5627484291
  0
LINE
  5
2B8
100
AcDbEntity
  8
0
100
AcDbLine
 62
2
  6
CONTINUOUS
 10
6.5115
 20
8.5627484291
 11
7.0360004579
 21
8.5627484291
  0
INSERT
  5
2B9
100
AcDbEntity
  8
0
100
AcDbBlockReference
 62
2
  6
CONTINUOUS
  2
_FILLED
 10
8.3635
 20
8.5627484291
 41
0.1875
 42
0.1875
 43
0.1875
  0
INSERT
  5
2BA
100
AcDbEntity
  8
0
100
AcDbBlockReference
 62
2
  6
CONTINUOUS
  2
_FILLED
 10
6.5115
 20
8.5627484291
 41
0.1875
 42
0.1875
 43
0.1875
 50
180.0
  0
ENDBLK
  5
2BB
100
AcDbEntity
  8
0
  6
BYBLOCK
 62
0
100
AcDbBlockEnd
  0
BLOCK
  5
2BC
100
AcDbEntity
  8
0
100
AcDbBlockBegin
 62
2
  6
CONTINUOUS
  2
*D25
 70
65
 10
0.0
 20
0.0
  3
*D25
  1

  0
MTEXT
  5
2BD
100
AcDbEntity
  8
0
100
AcDbMText
 62
2
  6
CONTINUOUS
  7
STANDARD
 71
2
 72
1
 10
7.4375
 20
7.8513490848
 30
0.0
 11
1.0
 21
0.0
 31
0.0
 44
0.9
  1
1.743
 40
0.15625
 41
0.6467490842
  0
LINE
  5
2BE
100
AcDbEntity
  8
0
100
AcDbLine
 62
2
  6
CONTINUOUS
 10
6.566
 20
7.3430133929
 11
6.566
 21
7.8982240848
  0
LINE
  5
2BF
100
AcDbEntity
  8
0
100
AcDbLine
 62
2
  6
CONTINUOUS
 10
8.309
 20
7.3430133929
 11
8.309
 21
7.8982240848
  0
LINE
  5
2C0
100
AcDbEntity
  8
0
100
AcDbLine
 62
2
  6
CONTINUOUS
 10
6.566
 20
7.7732240848
 11
7.0360004579
 21
7.7732240848
  0
LINE
  5
2C1
100
AcDbEntity
  8
0
100
AcDbLine
 62
2
  6
CONTINUOUS
 10
8.309
 20
7.7732240848
 11
7.8389995421
 21
7.7732240848
  0
INSERT
  5
2C2
100
AcDbEntity
  8
0
100
AcDbBlockReference
 62
2
  6
CONTINUOUS
  2
_FILLED
 10
6.566
 20
7.7732240848
 41
0.1875
 42
0.1875
 43
0.1875
 50
180.0
  0
INSERT
  5
2C3
100
AcDbEntity
  8
0
100
AcDbBlockReference
 62
2
  6
CONTINUOUS
  2
_FILLED
 10
8.309
 20
7.7732240848
 41
0.1875
 42
0.1875
 43
0.1875
  0
ENDBLK
  5
2C4
100
AcDbEntity
  8
0
  6
BYBLOCK
 62
0
100
AcDbBlockEnd
  0
BLOCK
  5
2C5
100
AcDbEntity
  8
0
100
AcDbBlockBegin
 62
2
  6
CONTINUOUS
  2
*D26
 70
65
 10
0.0
 20
0.0
  3
*D26
  1

  0
MTEXT
  5
2C6
100
AcDbEntity
  8
0
100
AcDbMText
 62
2
  6
CONTINUOUS
  7
STANDARD
 71
2
 72
1
 10
9.0638451987
 20
7.6263536246
 30
0.0
 11
1.0
 21
0.0
 31
0.0
 44
0.9
  1
2.323
 40
0.15625
 41
0.6467490842
  0
LINE
  5
2C7
100
AcDbEntity
  8
0
100
AcDbLine
 62
2
  6
CONTINUOUS
 10
9.4975
 20
5.9540133929
 11
8.9388451987
 21
5.9540133929
  0
LINE
  5
2C8
100
AcDbEntity
  8
0
100
AcDbLine
 62
2
  6
CONTINUOUS
 10
9.4975
 20
8.2770133929
 11
8.9388451987
 21
8.2770133929
  0
LINE
  5
2C9
100
AcDbEntity
  8
0
100
AcDbLine
 62
2
  6
CONTINUOUS
 10
9.0638451987
 20
5.9540133929
 11
9.0638451987
 21
7.3919786246
  0
LINE
  5
2CA
100
AcDbEntity
  8
0
100
AcDbLine
 62
2
  6
CONTINUOUS
 10
9.0638451987
 20
8.2770133929
 11
9.0638451987
 21
7.7044786246
  0
INSERT
  5
2CB
100
AcDbEntity
  8
0
100
AcDbBlockReference
 62
2
  6
CONTINUOUS
  2
_FILLED
 10
9.0638451987
 20
5.9540133929
 41
0.1875
 42
0.1875
 43
0.1875
 50
270.0
  0
INSERT
  5
2CC
100
AcDbEntity
  8
0
100
AcDbBlockReference
 62
2
  6
CONTINUOUS
  2
_FILLED
 10
9.0638451987
 20
8.2770133929
 41
0.1875
 42
0.1875
 43
0.1875
 50
90.0
  0
ENDBLK
  5
2CD
100
AcDbEntity
  8
0
  6
BYBLOCK
 62
0
100
AcDbBlockEnd
  0
BLOCK
  5
2CE
100
AcDbEntity
  8
0
100
AcDbBlockBegin
 62
2
  6
CONTINUOUS
  2
*D27
 70
65
 10
0.0
 20
0.0
  3
*D27
  1

  0
MTEXT
  5
2CF
100
AcDbEntity
  8
0
100
AcDbMText
 62
2
  6
CONTINUOUS
  7
STANDARD
 71
1
 72
1
 10
12.8347371689
 20
8.8383278146
 30
0.0
 11
1.0
 21
0.0
 31
0.0
 44
0.9
  1
1.083
 40
0.15625
 41
0.6467490842
  0
LINE
  5
2D0
100
AcDbEntity
  8
0
100
AcDbLine
 62
2
  6
CONTINUOUS
 10
9.56
 20
8.3395133929
 11
9.56
 21
8.8852028146
  0
LINE
  5
2D1
100
AcDbEntity
  8
0
100
AcDbLine
 62
2
  6
CONTINUOUS
 10
10.643
 20
8.3395133929
 11
10.643
 21
8.8852028146
  0
LINE
  5
2D2
100
AcDbEntity
  8
0
100
AcDbLine
 62
2
  6
CONTINUOUS
 10
9.56
 20
8.7602028146
 11
10.1015
 21
8.7602028146
  0
LINE
  5
2D3
100
AcDbEntity
  8
0
100
AcDbLine
 62
2
  6
CONTINUOUS
 10
10.643
 20
8.7602028146
 11
10.1015
 21
8.7602028146
  0
LINE
  5
2D4
100
AcDbEntity
  8
0
100
AcDbLine
 62
2
  6
CONTINUOUS
 10
10.1015
 20
8.7602028146
 11
12.7566121689
 21
8.7602028146
  0
INSERT
  5
2D5
100
AcDbEntity
  8
0
100
AcDbBlockReference
 62
2
  6
CONTINUOUS
  2
_FILLED
 10
9.56
 20
8.7602028146
 41
0.1875
 42
0.1875
 43
0.1875
 50
180.0
  0
INSERT
  5
2D6
100
AcDbEntity
  8
0
100
AcDbBlockReference
 62
2
  6
CONTINUOUS
  2
_FILLED
 10
10.643
 20
8.7602028146
 41
0.1875
 42
0.1875
 43
0.1875
  0
ENDBLK
  5
2D7
100
AcDbEntity
  8
0
  6
BYBLOCK
 62
0
100
AcDbBlockEnd
  0
BLOCK
  5
2D8
100
AcDbEntity
  8
0
100
AcDbBlockBegin
 62
2
  6
CONTINUOUS
  2
*D28
 70
65
 10
0.0
 20
0.0
  3
*D28
  1

  0
MTEXT
  5
2D9
100
AcDbEntity
  8
0
100
AcDbMText
 62
2
  6
CONTINUOUS
  7
STANDARD
 71
1
 72
1
 10
12.7738865894
 20
6.4989938742
 30
0.0
 11
1.0
 21
0.0
 31
0.0
 44
0.9
  1
1.575
 40
0.15625
 41
0.6467490842
  0
LINE
  5
2DA
100
AcDbEntity
  8
0
100
AcDbLine
 62
2
  6
CONTINUOUS
 10
9.314
 20
7.0530133929
 11
9.314
 21
6.2958688742
  0
LINE
  5
2DB
100
AcDbEntity
  8
0
100
AcDbLine
 62
2
  6
CONTINUOUS
 10
10.889
 20
7.0530133929
 11
10.889
 21
6.2958688742
  0
LINE
  5
2DC
100
AcDbEntity
  8
0
100
AcDbLine
 62
2
  6
CONTINUOUS
 10
9.314
 20
6.4208688742
 11
10.1015
 21
6.4208688742
  0
LINE
  5
2DD
100
AcDbEntity
  8
0
100
AcDbLine
 62
2
  6
CONTINUOUS
 10
10.889
 20
6.4208688742
 11
10.1015
 21
6.4208688742
  0
LINE
  5
2DE
100
AcDbEntity
  8
0
100
AcDbLine
 62
2
  6
CONTINUOUS
 10
10.1015
 20
6.4208688742
 11
12.6957615894
 21
6.4208688742
  0
INSERT
  5
2DF
100
AcDbEntity
  8
0
100
AcDbBlockReference
 62
2
  6
CONTINUOUS
  2
_FILLED
 10
9.314
 20
6.4208688742
 41
0.1875
 42
0.1875
 43
0.1875
 50
180.0
  0
INSERT
  5
2E0
100
AcDbEntity
  8
0
100
AcDbBlockReference
 62
2
  6
CONTINUOUS
  2
_FILLED
 10
10.889
 20
6.4208688742
 41
0.1875
 42
0.1875
 43
0.1875
  0
ENDBLK
  5
2E1
100
AcDbEntity
  8
0
  6
BYBLOCK
 62
0
100
AcDbBlockEnd
  0
BLOCK
  5
2E2
100
AcDbEntity
  8
0
100
AcDbBlockBegin
 62
2
  6
CONTINUOUS
  2
*D29
 70
65
 10
0.0
 20
0.0
  3
*D29
  1

  0
MTEXT
  5
2E3
100
AcDbEntity
  8
0
100
AcDbMText
 62
2
  6
CONTINUOUS
  7
TEXTSTYLE_1
 71
1
 72
1
 10
12.916232055
 20
8.1181538907
 30
0.0
 11
1.0
 21
0.0
 31
0.0
 44
0.9
  1
{\Fgdt;n}\Fveramono.ttf;.140
 40
0.15625
 41
0.7257326007
  0
LINE
  5
2E4
100
AcDbEntity
  8
0
100
AcDbLine
 62
2
  6
CONTINUOUS
 10
10.9384358702
 20
7.1650723954
 11
11.8112184821
 21
8.0400288907
  0
LINE
  5
2E5
100
AcDbEntity
  8
0
100
AcDbLine
 62
2
  6
CONTINUOUS
 10
11.8112184821
 20
8.0400288907
 11
12.838107055
 21
8.0400288907
  0
INSERT
  5
2E6
100
AcDbEntity
  8
0
100
AcDbBlockReference
 62
2
  6
CONTINUOUS
  2
_FILLED
 10
10.9384358702
 20
7.1650723954
 41
0.1875
 42
0.1875
 43
0.1875
 50
225.0712659427
  0
ENDBLK
  5
2E7
100
AcDbEntity
  8
0
  6
BYBLOCK
 62
0
100
AcDbBlockEnd
  0
BLOCK
  5
2E8
100
AcDbEntity
  8
0
100
AcDbBlockBegin
 62
2
  6
CONTINUOUS
  2
*D30
 70
65
 10
0.0
 20
0.0
  3
*D30
  1

  0
MTEXT
  5
2E9
100
AcDbEntity
  8
0
100
AcDbMText
 62
2
  6
CONTINUOUS
  7
STANDARD
 71
1
 72
1
 10
9.359375
 20
14.2367549669
 30
0.0
 11
0.0
 21
1.0
 31
0.0
 44
0.9
  1
3.875
 40
0.15625
 41
0.6467490842
  0
LINE
  5
2EA
100
AcDbEntity
  8
0
100
AcDbLine
 62
2
  6
CONTINUOUS
 10
9.4375
 20
11.9280133929
 11
9.4375
 21
14.1586299669
  0
ENDBLK
  5
2EB
100
AcDbEntity
  8
0
  6
BYBLOCK
 62
0
100
AcDbBlockEnd
  0
BLOCK
  5
2EC
100
AcDbEntity
  8
0
100
AcDbBlockBegin
 62
2
  6
CONTINUOUS
  2
*D31
 70
65
 10
0.0
 20
0.0
  3
*D31
  1

  0
MTEXT
  5
2ED
100
AcDbEntity
  8
0
100
AcDbMText
 62
2
  6
CONTINUOUS
  7
TEXTSTYLE_1
 71
3
 72
1
 10
5.1053400331
 20
10.7344957947
 30
0.0
 11
1.0
 21
0.0
 31
0.0
 44
0.9
  1
{\Fgdt;n}\Fveramono.ttf;.187
 40
0.15625
 41
0.7257326007
  0
LINE
  5
2EE
100
AcDbEntity
  8
0
100
AcDbLine
 62
2
  6
CONTINUOUS
 10
8.8611255929
 20
9.9194503926
 11
7.8176515563
 21
10.6563707947
  0
LINE
  5
2EF
100
AcDbEntity
  8
0
100
AcDbLine
 62
2
  6
CONTINUOUS
 10
7.8176515563
 20
10.6563707947
 11
5.1834650331
 21
10.6563707947
  0
INSERT
  5
2F0
100
AcDbEntity
  8
0
100
AcDbBlockReference
 62
2
  6
CONTINUOUS
  2
_FILLED
 10
8.8611255929
 20
9.9194503926
 41
0.1875
 42
0.1875
 43
0.1875
 50
324.7695641426
  0
ENDBLK
  5
2F1
100
AcDbEntity
  8
0
  6
BYBLOCK
 62
0
100
AcDbBlockEnd
  0
BLOCK
  5
2F2
100
AcDbEntity
  8
0
100
AcDbBlockBegin
 62
2
  6
CONTINUOUS
  2
*D32
 70
65
 10
0.0
 20
0.0
  3
*D32
  1

  0
MTEXT
  5
2F3
100
AcDbEntity
  8
0
100
AcDbMText
 62
2
  6
CONTINUOUS
  7
STANDARD
 71
3
 72
1
 10
5.1259312914
 20
13.9665769868
 30
0.0
 11
1.0
 21
0.0
 31
0.0
 44
0.9
  1
R1.000
 40
0.15625
 41
0.7760989011
  0
LINE
  5
2F4
100
AcDbEntity
  8
0
100
AcDbLine
 62
2
  6
CONTINUOUS
 10
5.8806448032
 20
13.3470005702
 11
5.3759312914
 21
13.8884519868
  0
LINE
  5
2F5
100
AcDbEntity
  8
0
100
AcDbLine
 62
2
  6
CONTINUOUS
 10
5.3759312914
 20
13.8884519868
 11
5.2040562914
 21
13.8884519868
  0
INSERT
  5
2F6
100
AcDbEntity
  8
0
100
AcDbBlockReference
 62
2
  6
CONTINUOUS
  2
_FILLED
 10
5.8806448032
 20
13.3470005702
 41
0.1875
 42
0.1875
 43
0.1875
 50
312.9887853109
  0
ENDBLK
  5
2F7
100
AcDbEntity
  8
0
  6
BYBLOCK
 62
0
100
AcDbBlockEnd
  0
BLOCK
  5
2F8
100
AcDbEntity
  8
0
100
AcDbBlockBegin
  2
*T1
 70
1
 10
0.0
 20
0.0
  3
*T1
  1

  0
LINE
  5
2F9
100
AcDbEntity
  8
0
100
AcDbLine
 62
7
  6
CONTINUOUS
 10
5.75
 20
0.0
 11
0.0
 21
0.0
  0
LINE
  5
2FA
100
AcDbEntity
  8
0
100
AcDbLine
 62
7
  6
CONTINUOUS
 10
5.75
 20
0.0
 11
5.75
 21
2.0
  0
LINE
  5
2FB
100
AcDbEntity
  8
0
100
AcDbLine
 62
7
  6
CONTINUOUS
 10
5.75
 20
0.25
 11
0.0
 21
0.25
  0
LINE
  5
2FC
100
AcDbEntity
  8
0
100
AcDbLine
 62
7
  6
CONTINUOUS
 10
5.75
 20
0.75
 11
3.5
 21
0.75
  0
LINE
  5
2FD
100
AcDbEntity
  8
0
100
AcDbLine
 62
7
  6
CONTINUOUS
 10
5.75
 20
2.0
 11
0.0
 21
2.0
  0
LINE
  5
2FE
100
AcDbEntity
  8
0
100
AcDbLine
 62
7
  6
CONTINUOUS
 10
3.5
 20
0.0
 11
3.5
 21
2.0
  0
LINE
  5
2FF
100
AcDbEntity
  8
0
100
AcDbLine
 62
7
  6
CONTINUOUS
 10
1.5
 20
0.0
 11
1.5
 21
0.25
  0
LINE
  5
300
100
AcDbEntity
  8
0
100
AcDbLine
 62
7
  6
CONTINUOUS
 10
0.0
 20
0.0
 11
0.0
 21
2.0
  0
MTEXT
  5
301
100
AcDbEntity
  8
BALLOONS
100
AcDbMText
 62
2
  6
CONTINUOUS
  7
TEXTSTYLE_2
 71
1
 72
1
 10
3.5625
 20
0.171875
 30
0.0
 11
1.0
 21
0.0
 31
0.0
 44
0.9
  1
SHEET 1 OF 1
 40
0.125
 41
1.2417582418
  0
MTEXT
  5
302
100
AcDbEntity
  8
BALLOONS
100
AcDbMText
 62
2
  6
CONTINUOUS
  7
TEXTSTYLE_2
 71
1
 72
1
 10
0.0625
 20
0.171875
 30
0.0
 11
1.0
 21
0.0
 31
0.0
 44
0.9
  1
SCALE
 40
0.125
 41
0.5173992674
  0
MTEXT
  5
303
100
AcDbEntity
  8
0
100
AcDbMText
 62
2
  6
CONTINUOUS
  7
STANDARD
 71
2
 72
1
 10
4.625
 20
0.58
 30
0.0
 11
1.0
 21
0.0
 31
0.0
 44
0.9
  1
 INTERFACE_PANEL
 40
0.16
 41
2.1192673993
  0
MTEXT
  5
304
100
AcDbEntity
  8
0
100
AcDbMText
 62
2
  6
CONTINUOUS
  7
STANDARD
 71
2
 72
1
 10
1.75
 20
1.485
 30
0.0
 11
1.0
 21
0.0
 31
0.0
 44
0.9
  1
INTERFACE PANEL \P \P 
 40
0.18
 41
2.3841758242
  0
ENDBLK
  5
305
100
AcDbEntity
  8
0
100
AcDbBlockEnd
  0
BLOCK
  5
306
100
AcDbEntity
  8
0
100
AcDbBlockBegin
  2
*T2
 70
1
 10
0.0
 20
0.0
  3
*T2
  1

  0
LINE
  5
307
100
AcDbEntity
  8
0
100
AcDbLine
 62
7
  6
CONTINUOUS
 10
1.75
 20
0.0
 11
0.0
 21
0.0
  0
LINE
  5
308
100
AcDbEntity
  8
0
100
AcDbLine
 62
7
  6
CONTINUOUS
 10
1.75
 20
0.0
 11
1.75
 21
1.998
  0
LINE
  5
309
100
AcDbEntity
  8
0
100
AcDbLine
 62
7
  6
CONTINUOUS
 10
0.625
 20
0.333
 11
0.0
 21
0.333
  0
LINE
  5
30A
100
AcDbEntity
  8
0
100
AcDbLine
 62
7
  6
CONTINUOUS
 10
0.625
 20
0.666
 11
0.0
 21
0.666
  0
LINE
  5
30B
100
AcDbEntity
  8
0
100
AcDbLine
 62
7
  6
CONTINUOUS
 10
0.625
 20
0.999
 11
0.0
 21
0.999
  0
LINE
  5
30C
100
AcDbEntity
  8
0
100
AcDbLine
 62
7
  6
CONTINUOUS
 10
0.625
 20
1.332
 11
0.0
 21
1.332
  0
LINE
  5
30D
100
AcDbEntity
  8
0
100
AcDbLine
 62
7
  6
CONTINUOUS
 10
1.75
 20
1.665
 11
0.0
 21
1.665
  0
LINE
  5
30E
100
AcDbEntity
  8
0
100
AcDbLine
 62
7
  6
CONTINUOUS
 10
1.75
 20
1.998
 11
0.0
 21
1.998
  0
LINE
  5
30F
100
AcDbEntity
  8
0
100
AcDbLine
 62
7
  6
CONTINUOUS
 10
1.0
 20
1.665
 11
1.0
 21
1.998
  0
LINE
  5
310
100
AcDbEntity
  8
0
100
AcDbLine
 62
7
  6
CONTINUOUS
 10
0.625
 20
0.0
 11
0.625
 21
1.998
  0
LINE
  5
311
100
AcDbEntity
  8
0
100
AcDbLine
 62
7
  6
CONTINUOUS
 10
0.0
 20
0.0
 11
0.0
 21
1.998
  0
MTEXT
  5
312
100
AcDbEntity
  8
BALLOONS
100
AcDbMText
 62
2
  6
CONTINUOUS
  7
TEXTSTYLE_3
 71
1
 72
1
 10
0.0625
 20
0.2665
 30
0.0
 11
1.0
 21
0.0
 31
0.0
 44
0.9
  1
CHIEF\PENGR.
 40
0.08
 41
0.3311355311
  0
MTEXT
  5
313
100
AcDbEntity
  8
BALLOONS
100
AcDbMText
 62
2
  6
CONTINUOUS
  7
TEXTSTYLE_3
 71
1
 72
1
 10
0.0625
 20
0.5995
 30
0.0
 11
1.0
 21
0.0
 31
0.0
 44
0.9
  1
PROJ.\PENGR.
 40
0.08
 41
0.3311355311
  0
MTEXT
  5
314
100
AcDbEntity
  8
BALLOONS
100
AcDbMText
 62
2
  6
CONTINUOUS
  7
TEXTSTYLE_3
 71
1
 72
1
 10
0.0625
 20
0.9325
 30
0.0
 11
1.0
 21
0.0
 31
0.0
 44
0.9
  1
ELEC.\PENGR.
 40
0.08
 41
0.3311355311
  0
MTEXT
  5
315
100
AcDbEntity
  8
BALLOONS
100
AcDbMText
 62
2
  6
CONTINUOUS
  7
TEXTSTYLE_3
 71
1
 72
1
 10
0.0625
 20
1.2655
 30
0.0
 11
1.0
 21
0.0
 31
0.0
 44
0.9
  1
MECH.\PENGR.
 40
0.08
 41
0.3311355311
  0
MTEXT
  5
316
100
AcDbEntity
  8
BALLOONS
100
AcDbMText
 62
2
  6
CONTINUOUS
  7
TEXTSTYLE_4
 71
1
 72
1
 10
0.0625
 20
1.5385
 30
0.0
 11
1.0
 21
0.0
 31
0.0
 44
0.9
  1
CHECKER
 40
0.08
 41
0.4635897436
  0
MTEXT
  5
317
100
AcDbEntity
  8
BALLOONS
100
AcDbMText
 62
2
  6
CONTINUOUS
  7
STANDARD
 71
2
 72
1
 10
1.375
 20
1.8815
 30
0.0
 11
1.0
 21
0.0
 31
0.0
 44
0.9
  1
2/19/10
 40
0.1
 41
0.5794871795
  0
MTEXT
  5
318
100
AcDbEntity
  8
BALLOONS
100
AcDbMText
 62
2
  6
CONTINUOUS
  7
STANDARD
 71
2
 72
1
 10
0.8125
 20
1.8815
 30
0.0
 11
1.0
 21
0.0
 31
0.0
 44
0.9
  1
BJD
 40
0.1
 41
0.2483516484
  0
MTEXT
  5
319
100
AcDbEntity
  8
BALLOONS
100
AcDbMText
 62
2
  6
CONTINUOUS
  7
TEXTSTYLE_5
 71
1
 72
1
 10
0.0625
 20
1.8715
 30
0.0
 11
1.0
 21
0.0
 31
0.0
 44
0.9
  1
DRAWN
 40
0.08
 41
0.3311355311
  0
ENDBLK
  5
31A
100
AcDbEntity
  8
0
100
AcDbBlockEnd
  0
BLOCK
  5
31B
100
AcDbEntity
  8
0
100
AcDbBlockBegin
  2
*T3
 70
1
 10
0.0
 20
0.0
  3
*T3
  1

  0
LINE
  5
31C
100
AcDbEntity
  8
0
100
AcDbLine
 62
7
  6
CONTINUOUS
 10
2.25
 20
0.0
 11
0.0
 21
0.0
  0
LINE
  5
31D
100
AcDbEntity
  8
0
100
AcDbLine
 62
7
  6
CONTINUOUS
 10
2.25
 20
0.0
 11
2.25
 21
2.0
  0
LINE
  5
31E
100
AcDbEntity
  8
0
100
AcDbLine
 62
7
  6
CONTINUOUS
 10
2.25
 20
0.5625
 11
0.0
 21
0.5625
  0
LINE
  5
31F
100
AcDbEntity
  8
0
100
AcDbLine
 62
7
  6
CONTINUOUS
 10
2.25
 20
1.125
 11
0.0
 21
1.125
  0
LINE
  5
320
100
AcDbEntity
  8
0
100
AcDbLine
 62
7
  6
CONTINUOUS
 10
2.25
 20
1.75
 11
0.0
 21
1.75
  0
LINE
  5
321
100
AcDbEntity
  8
0
100
AcDbLine
 62
7
  6
CONTINUOUS
 10
2.25
 20
2.0
 11
0.0
 21
2.0
  0
LINE
  5
322
100
AcDbEntity
  8
0
100
AcDbLine
 62
7
  6
CONTINUOUS
 10
1.5625
 20
1.125
 11
1.5625
 21
1.75
  0
LINE
  5
323
100
AcDbEntity
  8
0
100
AcDbLine
 62
7
  6
CONTINUOUS
 10
0.0
 20
0.0
 11
0.0
 21
2.0
  0
MTEXT
  5
324
100
AcDbEntity
  8
BALLOONS
100
AcDbMText
 62
2
  6
CONTINUOUS
  7
TEXTSTYLE_2
 71
1
 72
1
 10
0.0625
 20
0.40625
 30
0.0
 11
1.0
 21
0.0
 31
0.0
 44
0.9
  1
FINISH:\PSPEC:
 40
0.1
 41
0.5794871795
  0
MTEXT
  5
325
100
AcDbEntity
  8
BALLOONS
100
AcDbMText
 62
2
  6
CONTINUOUS
  7
TEXTSTYLE_2
 71
1
 72
1
 10
0.0625
 20
0.96875
 30
0.0
 11
1.0
 21
0.0
 31
0.0
 44
0.9
  1
MATERIAL:\PSPEC:
 40
0.1
 41
0.7450549451
  0
MTEXT
  5
326
100
AcDbEntity
  8
BALLOONS
100
AcDbMText
 62
2
  6
CONTINUOUS
  7
STANDARD
 71
2
 72
1
 10
1.90625
 20
1.59375
 30
0.0
 11
1.0
 21
0.0
 31
0.0
 44
0.9
  1
DO NOT\PSCALE
 40
0.125
 41
0.6208791209
  0
MTEXT
  5
327
100
AcDbEntity
  8
BALLOONS
100
AcDbMText
 62
2
  6
CONTINUOUS
  7
TEXTSTYLE_6
 71
3
 72
1
 10
1.5
 20
1.685
 30
0.0
 11
1.0
 21
0.0
 31
0.0
 44
0.9
  1
FRACTIONAL   \Fgdt;{\Fgdt;`}\Fveramono.ttf; 1/32\PDECIMAL .XXX \Fgdt;{\Fgdt;`}\Fveramono.ttf; .010\P.XX \Fgdt;{\Fgdt;`}\Fveramono.ttf; .020\PANGULAR      \Fgdt;{\Fgdt;`}\Fveramono.ttf; 1/2\Fgdt;{\Fgdt;~}
 40
0.09
 41
1.4460989011
  0
MTEXT
  5
328
100
AcDbEntity
  8
BALLOONS
100
AcDbMText
 62
2
  6
CONTINUOUS
  7
TEXTSTYLE_5
 71
1
 72
1
 10
0.0625
 20
1.921875
 30
0.0
 11
1.0
 21
0.0
 31
0.0
 44
0.9
  1
UNLESS OTHERWISE SPECIFIED:
 40
0.095
 41
2.1234065934
  0
ENDBLK
  5
329
100
AcDbEntity
  8
0
100
AcDbBlockEnd
  0
BLOCK
  5
32A
100
AcDbEntity
  8
0
100
AcDbBlockBegin
  2
*T4
 70
1
 10
0.0
 20
0.0
  3
*T4
  1

  0
LINE
  5
32B
100
AcDbEntity
  8
0
100
AcDbLine
 62
2
  6
CONTINUOUS
 10
0.0
 20
0.0
 11
6.375
 21
0.0
  0
LINE
  5
32C
100
AcDbEntity
  8
0
100
AcDbLine
 62
2
  6
CONTINUOUS
 10
0.0
 20
0.0
 11
0.0
 21
-0.828125
  0
LINE
  5
32D
100
AcDbEntity
  8
0
100
AcDbLine
 62
2
  6
CONTINUOUS
 10
0.0
 20
-0.2421875
 11
6.375
 21
-0.2421875
  0
LINE
  5
32E
100
AcDbEntity
  8
0
100
AcDbLine
 62
2
  6
CONTINUOUS
 10
0.0
 20
-0.4375
 11
6.375
 21
-0.4375
  0
LINE
  5
32F
100
AcDbEntity
  8
0
100
AcDbLine
 62
2
  6
CONTINUOUS
 10
0.0
 20
-0.6328125
 11
6.375
 21
-0.6328125
  0
LINE
  5
330
100
AcDbEntity
  8
0
100
AcDbLine
 62
2
  6
CONTINUOUS
 10
0.0
 20
-0.828125
 11
6.375
 21
-0.828125
  0
LINE
  5
331
100
AcDbEntity
  8
0
100
AcDbLine
 62
2
  6
CONTINUOUS
 10
0.5
 20
-0.2421875
 11
0.5
 21
-0.828125
  0
LINE
  5
332
100
AcDbEntity
  8
0
100
AcDbLine
 62
2
  6
CONTINUOUS
 10
3.375
 20
-0.2421875
 11
3.375
 21
-0.828125
  0
LINE
  5
333
100
AcDbEntity
  8
0
100
AcDbLine
 62
2
  6
CONTINUOUS
 10
3.75
 20
-0.2421875
 11
3.75
 21
-0.828125
  0
LINE
  5
334
100
AcDbEntity
  8
0
100
AcDbLine
 62
2
  6
CONTINUOUS
 10
4.5
 20
0.0
 11
4.5
 21
-0.828125
  0
LINE
  5
335
100
AcDbEntity
  8
0
100
AcDbLine
 62
2
  6
CONTINUOUS
 10
5.125
 20
-0.2421875
 11
5.125
 21
-0.828125
  0
LINE
  5
336
100
AcDbEntity
  8
0
100
AcDbLine
 62
2
  6
CONTINUOUS
 10
5.75
 20
-0.2421875
 11
5.75
 21
-0.828125
  0
LINE
  5
337
100
AcDbEntity
  8
0
100
AcDbLine
 62
2
  6
CONTINUOUS
 10
6.375
 20
0.0
 11
6.375
 21
-0.828125
  0
MTEXT
  5
338
100
AcDbEntity
  8
BALLOONS
100
AcDbMText
 62
2
  6
CONTINUOUS
  7
STANDARD
 71
2
 72
1
 10
2.25
 20
-0.05859375
 30
0.0
 11
1.0
 21
0.0
 31
0.0
 44
0.9
  1
REVISIONS
 40
0.125
 41
0.9313186813
  0
MTEXT
  5
339
100
AcDbEntity
  8
BALLOONS
100
AcDbMText
 62
2
  6
CONTINUOUS
  7
STANDARD
 71
2
 72
1
 10
5.4375
 20
-0.05859375
 30
0.0
 11
1.0
 21
0.0
 31
0.0
 44
0.9
  1
APPROVALS
 40
0.125
 41
0.9313186813
  0
MTEXT
  5
33A
100
AcDbEntity
  8
BALLOONS
100
AcDbMText
 62
2
  6
CONTINUOUS
  7
STANDARD
 71
2
 72
1
 10
0.25
 20
-0.28984375
 30
0.0
 11
1.0
 21
0.0
 31
0.0
 44
0.9
  1
SYM
 40
0.1
 41
0.2483516484
  0
MTEXT
  5
33B
100
AcDbEntity
  8
BALLOONS
100
AcDbMText
 62
2
  6
CONTINUOUS
  7
STANDARD
 71
2
 72
1
 10
1.9375
 20
-0.28984375
 30
0.0
 11
1.0
 21
0.0
 31
0.0
 44
0.9
  1
DESCRIPTION
 40
0.1
 41
0.9106227106
  0
MTEXT
  5
33C
100
AcDbEntity
  8
BALLOONS
100
AcDbMText
 62
2
  6
CONTINUOUS
  7
STANDARD
 71
2
 72
1
 10
3.5625
 20
-0.28984375
 30
0.0
 11
1.0
 21
0.0
 31
0.0
 44
0.9
  1
BY
 40
0.1
 41
0.1655677656
  0
MTEXT
  5
33D
100
AcDbEntity
  8
BALLOONS
100
AcDbMText
 62
2
  6
CONTINUOUS
  7
STANDARD
 71
2
 72
1
 10
4.125
 20
-0.28984375
 30
0.0
 11
1.0
 21
0.0
 31
0.0
 44
0.9
  1
DATE
 40
0.1
 41
0.3311355311
  0
MTEXT
  5
33E
100
AcDbEntity
  8
BALLOONS
100
AcDbMText
 62
2
  6
CONTINUOUS
  7
STANDARD
 71
2
 72
1
 10
4.8125
 20
-0.28984375
 30
0.0
 11
1.0
 21
0.0
 31
0.0
 44
0.9
  1
ENGRG
 40
0.1
 41
0.4139194139
  0
MTEXT
  5
33F
100
AcDbEntity
  8
BALLOONS
100
AcDbMText
 62
2
  6
CONTINUOUS
  7
STANDARD
 71
2
 72
1
 10
5.4375
 20
-0.28984375
 30
0.0
 11
1.0
 21
0.0
 31
0.0
 44
0.9
  1
PROD
 40
0.1
 41
0.3311355311
  0
MTEXT
  5
340
100
AcDbEntity
  8
BALLOONS
100
AcDbMText
 62
2
  6
CONTINUOUS
  7
STANDARD
 71
2
 72
1
 10
6.0625
 20
-0.28984375
 30
0.0
 11
1.0
 21
0.0
 31
0.0
 44
0.9
  1
Q.A.
 40
0.1
 41
0.3311355311
  0
MTEXT
  5
341
100
AcDbEntity
  8
BALLOONS
100
AcDbMText
 62
2
  6
CONTINUOUS
  7
STANDARD
 71
2
 72
1
 10
0.25
 20
-0.48515625
 30
0.0
 11
1.0
 21
0.0
 31
0.0
 44
0.9
  1
1
 40
0.1
 41
0.0827838828
  0
MTEXT
  5
342
100
AcDbEntity
  8
BALLOONS
100
AcDbMText
 62
2
  6
CONTINUOUS
  7
STANDARD
 71
1
 72
1
 10
0.5625
 20
-0.48515625
 30
0.0
 11
1.0
 21
0.0
 31
0.0
 44
0.9
  1
ORIGINAL        
 40
0.1
 41
1.3245421245
  0
MTEXT
  5
343
100
AcDbEntity
  8
BALLOONS
100
AcDbMText
 62
2
  6
CONTINUOUS
  7
STANDARD
 71
2
 72
1
 10
3.5625
 20
-0.48515625
 30
0.0
 11
1.0
 21
0.0
 31
0.0
 44
0.9
  1
BJD
 40
0.1
 41
0.2483516484
  0
MTEXT
  5
344
100
AcDbEntity
  8
BALLOONS
100
AcDbMText
 62
2
  6
CONTINUOUS
  7
TEXTSTYLE_2
 71
2
 72
1
 10
4.125
 20
-0.48515625
 30
0.0
 11
1.0
 21
0.0
 31
0.0
 44
0.9
  1
9/20/09
 40
0.1
 41
0.5794871795
  0
MTEXT
  5
345
100
AcDbEntity
  8
BALLOONS
100
AcDbMText
 62
2
  6
CONTINUOUS
  7
STANDARD
 71
2
 72
1
 10
0.25
 20
-0.68046875
 30
0.0
 11
1.0
 21
0.0
 31
0.0
 44
0.9
  1
2
 40
0.1
 41
0.0827838828
  0
MTEXT
  5
346
100
AcDbEntity
  8
BALLOONS
100
AcDbMText
 62
2
  6
CONTINUOUS
  7
STANDARD
 71
1
 72
1
 10
0.5625
 20
-0.68046875
 30
0.0
 11
1.0
 21
0.0
 31
0.0
 44
0.9
  1
Revised
 40
0.1
 41
0.5794871795
  0
MTEXT
  5
347
100
AcDbEntity
  8
BALLOONS
100
AcDbMText
 62
2
  6
CONTINUOUS
  7
STANDARD
 71
2
 72
1
 10
3.5625
 20
-0.68046875
 30
0.0
 11
1.0
 21
0.0
 31
0.0
 44
0.9
  1
BJD
 40
0.1
 41
0.2483516484
  0
MTEXT
  5
348
100
AcDbEntity
  8
BALLOONS
100
AcDbMText
 62
2
  6
CONTINUOUS
  7
STANDARD
 71
2
 72
1
 10
4.125
 20
-0.68046875
 30
0.0
 11
1.0
 21
0.0
 31
0.0
 44
0.9
  1
2/20/10
 40
0.1
 41
0.5794871795
  0
ENDBLK
  5
349
100
AcDbEntity
  8
0
100
AcDbBlockEnd
  0
ENDSEC
  0
SECTION
  2
ENTITIES
  0
MTEXT
  5
34A
100
AcDbEntity
  8
0
100
AcDbMText
 62
2
  6
CONTINUOUS
  7
STANDARD
 71
3
 72
1
 10
0.877527784
 20
2.6613423863
 30
0.0
 11
1.0
 21
0.0
 31
0.0
 44
0.9
  1
A
 40
0.1
 41
0.0827838828
  0
MTEXT
  5
34B
100
AcDbEntity
  8
0
100
AcDbMText
 62
2
  6
CONTINUOUS
  7
STANDARD
 71
3
 72
1
 10
0.8722638879
 20
6.6408478441
 30
0.0
 11
1.0
 21
0.0
 31
0.0
 44
0.9
  1
B
 40
0.1
 41
0.0827838828
  0
MTEXT
  5
34C
100
AcDbEntity
  8
0
100
AcDbMText
 62
2
  6
CONTINUOUS
  7
STANDARD
 71
3
 72
1
 10
0.8795811572
 20
10.5128291482
 30
0.0
 11
1.0
 21
0.0
 31
0.0
 44
0.9
  1
C
 40
0.1
 41
0.0827838828
  0
MTEXT
  5
34D
100
AcDbEntity
  8
0
100
AcDbMText
 62
2
  6
CONTINUOUS
  7
STANDARD
 71
3
 72
1
 10
0.8795811572
 20
14.1738008238
 30
0.0
 11
1.0
 21
0.0
 31
0.0
 44
0.9
  1
D
 40
0.1
 41
0.0827838828
  0
MTEXT
  5
34E
100
AcDbEntity
  8
0
100
AcDbMText
 62
2
  6
CONTINUOUS
  7
STANDARD
 71
2
 72
1
 10
2.5776440329
 20
16.2315487826
 30
0.0
 11
1.0
 21
0.0
 31
0.0
 44
0.9
  1
1
 40
0.1
 41
0.0827838828
  0
MTEXT
  5
34F
100
AcDbEntity
  8
0
100
AcDbMText
 62
2
  6
CONTINUOUS
  7
STANDARD
 71
2
 72
1
 10
5.9106440329
 20
16.2315487826
 30
0.0
 11
1.0
 21
0.0
 31
0.0
 44
0.9
  1
2
 40
0.1
 41
0.0827838828
  0
MTEXT
  5
350
100
AcDbEntity
  8
0
100
AcDbMText
 62
2
  6
CONTINUOUS
  7
STANDARD
 71
2
 72
1
 10
9.2436440329
 20
16.2315487826
 30
0.0
 11
1.0
 21
0.0
 31
0.0
 44
0.9
  1
3
 40
0.1
 41
0.0827838828
  0
MTEXT
  5
351
100
AcDbEntity
  8
0
100
AcDbMText
 62
2
  6
CONTINUOUS
  7
STANDARD
 71
2
 72
1
 10
12.5766440329
 20
16.2315487826
 30
0.0
 11
1.0
 21
0.0
 31
0.0
 44
0.9
  1
4
 40
0.1
 41
0.0827838828
  0
MTEXT
  5
352
100
AcDbEntity
  8
0
100
AcDbMText
 62
2
  6
CONTINUOUS
  7
STANDARD
 71
2
 72
1
 10
15.9096440329
 20
16.2315487826
 30
0.0
 11
1.0
 21
0.0
 31
0.0
 44
0.9
  1
5
 40
0.1
 41
0.0827838828
  0
MTEXT
  5
353
100
AcDbEntity
  8
0
100
AcDbMText
 62
2
  6
CONTINUOUS
  7
STANDARD
 71
2
 72
1
 10
19.2426440329
 20
16.2315487826
 30
0.0
 11
1.0
 21
0.0
 31
0.0
 44
0.9
  1
6
 40
0.1
 41
0.0827838828
  0
DIMENSION
  5
354
100
AcDbEntity
  8
0
100
AcDbDimension
 62
2
  6
CONTINUOUS
  2
*D0
 10
5.5625
 20
12.6155133929
 11
12.3125
 21
14.5828862794
 70
230
 71
1
 42
6.75
  3
DIMSTYLE_1
100
AcDbOrdinateDimension
 13
12.3125
 23
12.6780133929
 14
12.3125
 24
14.1813867372
  0
DIMENSION
  5
355
100
AcDbEntity
  8
0
100
AcDbDimension
 62
2
  6
CONTINUOUS
  2
*D1
 10
11.3125
 20
5.1155133929
 11
13.5222171385
 21
13.6155133929
 70
166
 71
1
 42
8.5
  3
DIMSTYLE_1
100
AcDbOrdinateDimension
 13
11.375
 23
13.6155133929
 14
13.1207175964
 24
13.6155133929
  0
DIMENSION
  5
356
100
AcDbEntity
  8
0
100
AcDbDimension
 62
2
  6
CONTINUOUS
  2
*D2
 10
11.3125
 20
5.1155133929
 11
13.4575422301
 21
5.4280133929
 70
166
 71
1
 42
0.3125
  3
DIMSTYLE_1
100
AcDbOrdinateDimension
 13
11.0
 23
5.4280133929
 14
13.1207175964
 24
5.4280133929
  0
DIMENSION
  5
357
100
AcDbEntity
  8
0
100
AcDbDimension
 62
2
  6
CONTINUOUS
  2
*D3
 10
11.3125
 20
5.1155133929
 11
13.5222171385
 21
6.8655133929
 70
166
 71
1
 42
1.75
  3
DIMSTYLE_1
100
AcDbOrdinateDimension
 13
12.0625
 23
6.8655133929
 14
13.1207175964
 24
6.8655133929
  0
DIMENSION
  5
358
100
AcDbEntity
  8
0
100
AcDbDimension
 62
2
  6
CONTINUOUS
  2
*D4
 10
11.3125
 20
5.1155133929
 11
13.5222171385
 21
9.3655133929
 70
166
 71
1
 42
4.25
  3
DIMSTYLE_1
100
AcDbOrdinateDimension
 13
12.0625
 23
9.3655133929
 14
13.1207175964
 24
9.3655133929
  0
DIMENSION
  5
359
100
AcDbEntity
  8
0
100
AcDbDimension
 62
2
  6
CONTINUOUS
  2
*D5
 10
11.3125
 20
5.1155133929
 11
13.5222171385
 21
11.8655133929
 70
166
 71
1
 42
6.75
  3
DIMSTYLE_1
100
AcDbOrdinateDimension
 13
12.0625
 23
11.8655133929
 14
13.1207175964
 24
11.8655133929
  0
DIMENSION
  5
35A
100
AcDbEntity
  8
0
100
AcDbDimension
 62
2
  6
CONTINUOUS
  2
*D6
 10
11.3125
 20
5.1155133929
 11
13.5222171385
 21
13.3030133929
 70
166
 71
1
 42
8.1875
  3
DIMSTYLE_1
100
AcDbOrdinateDimension
 13
11.0
 23
13.3030133929
 14
13.1207175964
 24
13.3030133929
  0
DIMENSION
  5
35B
100
AcDbEntity
  8
0
100
AcDbDimension
 62
2
  6
CONTINUOUS
  2
*D7
 10
6.5625
 20
5.1155133929
 11
4.177566771
 21
7.1155133929
 70
166
 71
3
 42
2.0
  3
DIMSTYLE_1
100
AcDbOrdinateDimension
 13
6.449
 23
7.1155133929
 14
5.2258153974
 24
7.1155133929
  0
DIMENSION
  5
35C
100
AcDbEntity
  8
0
100
AcDbDimension
 62
2
  6
CONTINUOUS
  2
*D8
 10
6.5625
 20
5.1155133929
 11
4.177566771
 21
9.8655133929
 70
166
 71
3
 42
4.75
  3
DIMSTYLE_1
100
AcDbOrdinateDimension
 13
8.875
 23
9.8655133929
 14
5.2258153974
 24
9.8655133929
  0
DIMENSION
  5
35D
100
AcDbEntity
  8
0
100
AcDbDimension
 62
2
  6
CONTINUOUS
  2
*D9
 10
11.3125
 20
5.1155133929
 11
13.4575422301
 21
5.1155133929
 70
166
 71
1
  3
DIMSTYLE_1
100
AcDbOrdinateDimension
 13
11.375
 23
5.1155133929
 14
13.1207175964
 24
5.1155133929
  0
DIMENSION
  5
35E
100
AcDbEntity
  8
0
100
AcDbDimension
 62
2
  6
CONTINUOUS
  2
*D10
 10
5.5625
 20
12.6155133929
 11
5.875
 21
14.5182113709
 70
230
 71
1
 42
0.3125
  3
DIMSTYLE_1
100
AcDbOrdinateDimension
 13
5.875
 23
11.9280133929
 14
5.875
 24
14.1813867372
  0
DIMENSION
  5
35F
100
AcDbEntity
  8
0
100
AcDbDimension
 62
2
  6
CONTINUOUS
  2
*D11
 10
5.5625
 20
12.6155133929
 11
6.9375
 21
14.5828862794
 70
230
 71
1
 42
1.375
  3
DIMSTYLE_1
100
AcDbOrdinateDimension
 13
6.9375
 23
13.3655133929
 14
6.9375
 24
14.1813867372
  0
DIMENSION
  5
360
100
AcDbEntity
  8
0
100
AcDbDimension
 62
2
  6
CONTINUOUS
  2
*D12
 10
5.5625
 20
12.6155133929
 11
8.9375
 21
14.5828862794
 70
230
 71
1
 42
3.375
  3
DIMSTYLE_1
100
AcDbOrdinateDimension
 13
8.9375
 23
13.3655133929
 14
8.9375
 24
14.1813867372
  0
DIMENSION
  5
361
100
AcDbEntity
  8
0
100
AcDbDimension
 62
2
  6
CONTINUOUS
  2
*D13
 10
5.5625
 20
12.6155133929
 11
10.9375
 21
14.5828862794
 70
230
 71
1
 42
5.375
  3
DIMSTYLE_1
100
AcDbOrdinateDimension
 13
10.9375
 23
13.3655133929
 14
10.9375
 24
14.1813867372
  0
DIMENSION
  5
362
100
AcDbEntity
  8
0
100
AcDbDimension
 62
2
  6
CONTINUOUS
  2
*D14
 10
5.5625
 20
12.6155133929
 11
8.3125
 21
14.5828862794
 70
230
 71
1
 42
2.75
  3
DIMSTYLE_1
100
AcDbOrdinateDimension
 13
8.3125
 23
11.9280133929
 14
8.3125
 24
14.1813867372
  0
DIMENSION
  5
363
100
AcDbEntity
  8
0
100
AcDbDimension
 62
2
  6
CONTINUOUS
  2
*D15
 10
5.5625
 20
12.6155133929
 11
10.5625
 21
14.5828862794
 70
230
 71
1
 42
5.0
  3
DIMSTYLE_1
100
AcDbOrdinateDimension
 13
10.5625
 23
11.9280133929
 14
10.5625
 24
14.1813867372
  0
DIMENSION
  5
364
100
AcDbEntity
  8
0
100
AcDbDimension
 62
2
  6
CONTINUOUS
  2
*D16
 10
5.5625
 20
6.1155133929
 11
7.7272912009
 21
3.6785912191
 70
230
 71
3
 42
1.875
  3
DIMSTYLE_1
100
AcDbOrdinateDimension
 13
7.4375
 23
6.8280133929
 14
7.4375
 24
4.6582822848
  0
DIMENSION
  5
365
100
AcDbEntity
  8
0
100
AcDbDimension
 62
2
  6
CONTINUOUS
  2
*D17
 10
5.5625
 20
6.1155133929
 11
10.3912912009
 21
3.6785912191
 70
230
 71
3
 42
4.539
  3
DIMSTYLE_1
100
AcDbOrdinateDimension
 13
10.1015
 23
5.8915133929
 14
10.1015
 24
4.6582822848
  0
DIMENSION
  5
366
100
AcDbEntity
  8
0
100
AcDbDimension
 62
2
  6
CONTINUOUS
  2
*D18
 10
5.5625
 20
12.6155133929
 11
5.5625
 21
14.5159430112
 70
230
 71
1
  3
DIMSTYLE_1
100
AcDbOrdinateDimension
 13
5.5625
 23
12.6780133929
 14
5.5625
 24
14.1791183775
  0
DIMENSION
  5
367
100
AcDbEntity
  8
0
100
AcDbDimension
 62
2
  6
CONTINUOUS
  2
*D19
 10
12.0750979096
 20
6.9337962895
 11
13.4053837194
 21
7.5861111475
 70
163
 71
1
 42
0.203
  1
<>
  3
DIMSTYLE_2
100
AcDbDiametricDimension
 15
11.9249020904
 25
6.7972304962
  0
DIMENSION
  5
368
100
AcDbEntity
  8
0
100
AcDbDimension
 62
2
  6
CONTINUOUS
  2
*D20
 10
10.7478377242
 20
12.0179926636
 11
13.421204148
 21
12.5269725166
 70
163
 71
1
 42
0.48
  1
<>
  3
DIMSTYLE_2
100
AcDbDiametricDimension
 15
10.3771622758
 25
11.7130341221
  0
DIMENSION
  5
369
100
AcDbEntity
  8
0
100
AcDbDimension
 62
2
  6
CONTINUOUS
  2
*D21
 10
10.265
 20
10.9135347682
 11
11.2460307921
 21
10.9135347682
 70
160
 71
1
 42
1.125
  3
DIMSTYLE_3
100
AcDbAlignedDimension
 13
9.14
 23
10.3011336818
 14
10.265
 24
10.3011336818
100
AcDbRotatedDimension
  0
DIMENSION
  5
36A
100
AcDbEntity
  8
0
100
AcDbDimension
 62
2
  6
CONTINUOUS
  2
*D22
 10
9.3191800685
 20
10.421112916
 11
7.7813753389
 21
10.8815728477
 70
163
 71
3
 42
1.35
  1
<>
  3
DIMSTYLE_2
100
AcDbDiametricDimension
 15
10.0858199315
 25
9.3099138697
  0
DIMENSION
  5
36B
100
AcDbEntity
  8
0
100
AcDbDimension
 62
2
  6
CONTINUOUS
  2
*D23
 10
6.0929600993
 20
7.3405133929
 11
4.4356956353
 21
7.9599976159
 70
160
 71
3
 42
0.45
  3
DIMSTYLE_3
100
AcDbAlignedDimension
 13
6.5635
 23
6.8905133929
 14
6.5635
 24
7.3405133929
 50
90.0
100
AcDbRotatedDimension
  0
DIMENSION
  5
36C
100
AcDbEntity
  8
0
100
AcDbDimension
 62
2
  6
CONTINUOUS
  2
*D24
 10
6.5115
 20
8.5627484291
 11
7.1141254579
 21
8.5627484291
 70
160
 71
2
 42
1.852
  3
DIMSTYLE_3
100
AcDbAlignedDimension
 13
8.3635
 23
7.1780133929
 14
6.5115
 24
7.1780133929
 50
180.0
100
AcDbRotatedDimension
  0
DIMENSION
  5
36D
100
AcDbEntity
  8
0
100
AcDbDimension
 62
2
  6
CONTINUOUS
  2
*D25
 10
8.309
 20
7.7732240848
 11
7.1141254579
 21
7.7732240848
 70
160
 71
2
 42
1.743
  3
DIMSTYLE_3
100
AcDbAlignedDimension
 13
6.566
 23
7.3430133929
 14
8.309
 24
7.3430133929
100
AcDbRotatedDimension
  0
DIMENSION
  5
36E
100
AcDbEntity
  8
0
100
AcDbDimension
 62
2
  6
CONTINUOUS
  2
*D26
 10
9.0638451987
 20
8.2770133929
 11
8.7404706566
 21
7.5482286246
 70
160
 71
2
 42
2.323
  3
DIMSTYLE_3
100
AcDbAlignedDimension
 13
9.4975
 23
5.9540133929
 14
9.4975
 24
8.2770133929
 50
90.0
100
AcDbRotatedDimension
  0
DIMENSION
  5
36F
100
AcDbEntity
  8
0
100
AcDbDimension
 62
2
  6
CONTINUOUS
  2
*D27
 10
10.643
 20
8.7602028146
 11
13.158111711
 21
8.7602028146
 70
160
 71
1
 42
1.083
  3
DIMSTYLE_3
100
AcDbAlignedDimension
 13
9.56
 23
8.3395133929
 14
10.643
 24
8.3395133929
100
AcDbRotatedDimension
  0
DIMENSION
  5
370
100
AcDbEntity
  8
0
100
AcDbDimension
 62
2
  6
CONTINUOUS
  2
*D28
 10
10.889
 20
6.4208688742
 11
13.0972611315
 21
6.4208688742
 70
160
 71
1
 42
1.575
  3
DIMSTYLE_3
100
AcDbAlignedDimension
 13
9.314
 23
7.0530133929
 14
10.889
 24
7.0530133929
100
AcDbRotatedDimension
  0
DIMENSION
  5
371
100
AcDbEntity
  8
0
100
AcDbDimension
 62
2
  6
CONTINUOUS
  2
*D29
 10
10.9384358702
 20
7.1650723954
 11
13.2790983553
 21
8.0400288907
 70
163
 71
1
 42
0.14
  1
<>
  3
DIMSTYLE_2
100
AcDbDiametricDimension
 15
10.8395641298
 25
7.0659543903
  0
DIMENSION
  5
372
100
AcDbEntity
  8
0
100
AcDbDimension
 62
2
  6
CONTINUOUS
  2
*D30
 10
5.5625
 20
12.6155133929
 11
9.4375
 21
14.560129509
 70
230
 71
1
 42
3.875
  3
DIMSTYLE_1
100
AcDbOrdinateDimension
 13
9.4375
 23
11.9280133929
 14
9.4375
 24
14.1586299669
  0
DIMENSION
  5
373
100
AcDbEntity
  8
0
100
AcDbDimension
 62
2
  6
CONTINUOUS
  2
*D31
 10
8.8611255929
 20
9.9194503926
 11
4.329241132
 21
10.6563707947
 70
163
 71
3
 42
0.187
  1
<>
  3
DIMSTYLE_2
100
AcDbDiametricDimension
 15
9.0138744071
 25
9.8115763931
  0
DIMENSION
  5
374
100
AcDbEntity
  8
0
100
AcDbDimension
 62
2
  6
CONTINUOUS
  2
*D32
 10
6.5625
 20
12.6155133929
 11
4.155807665
 21
13.8884519868
 70
164
 71
3
 42
1.0
  1
<>
  3
DIMSTYLE_4
100
AcDbRadialDimension
 15
5.8806448032
 25
13.3470005702
  0
ACAD_TABLE
  5
375
100
AcDbEntity
  8
0
 62
2
  6
CONTINUOUS
100
AcDbBlockReference
  2
*T1
 10
15.2417141661
 20
1.0059574672
 30
0.0
100
AcDbTable
342
       3D2
343
232
 11
1.0
 21
0.0
 31
0.0
 90
6
 91
3
 92
3
 93
20
 94
0
 95
0
 96
0
 70
1
 41
0.028
141
0.25
141
0.5
141
1.25
142
1.5
142
2.0
142
2.25
171
1
172
0
173
0
174
0
175
1
176
1
177
33
178
0
145
0.0
  1
SCALE
170
1
140
0.125
171
1
172
0
173
0
174
0
175
1
176
1
177
1
178
0
145
0.0
170
1
171
1
172
0
173
0
174
0
175
1
176
1
177
33
178
0
145
0.0
  1
SHEET 1 OF 1
170
1
140
0.125
171
1
172
0
173
0
174
0
175
2
176
2
177
33
178
0
145
0.0
  1
INTERFACE PANEL \P \P 
170
5
140
0.18
171
1
172
0
173
1
174
0
175
1
176
1
177
1
178
0
145
0.0
170
5
171
1
172
0
173
0
174
0
175
1
176
1
177
33
178
0
145
0.0
  1
 INTERFACE_PANEL
170
5
140
0.16
171
1
172
0
173
1
174
0
175
1
176
1
177
1
178
0
145
0.0
170
1
171
1
172
0
173
1
174
0
175
1
176
1
177
1
178
0
145
0.0
170
1
171
1
172
0
173
0
174
0
175
1
176
1
177
1
178
0
145
0.0
170
1
  0
ACAD_TABLE
  5
376
100
AcDbEntity
  8
0
 62
2
  6
CONTINUOUS
100
AcDbBlockReference
  2
*T2
 10
13.4905084882
 20
1.0062106028
 30
0.0
100
AcDbTable
342
       3D2
343
233
 11
1.0
 21
0.0
 31
0.0
 90
6
 91
6
 92
3
 93
4
 94
0
 95
0
 96
0
 70
1
141
0.333
141
0.333
141
0.333
141
0.333
141
0.333
141
0.333
142
0.625
142
0.375
142
0.75
171
1
172
0
173
0
174
0
175
1
176
1
177
33
178
0
145
0.0
  1
CHIEF\PENGR.
170
4
140
0.08
171
1
172
0
173
0
174
0
175
2
176
5
177
1
178
0
145
0.0
170
1
171
1
172
0
173
1
174
0
175
1
176
1
177
1
178
0
145
0.0
170
1
171
1
172
0
173
0
174
0
175
1
176
1
177
33
178
0
145
0.0
  1
PROJ.\PENGR.
170
4
140
0.08
171
1
172
0
173
1
174
0
175
1
176
1
177
1
178
0
145
0.0
170
1
171
1
172
0
173
1
174
0
175
1
176
1
177
1
178
0
145
0.0
170
1
171
1
172
0
173
0
174
0
175
1
176
1
177
33
178
0
145
0.0
  1
ELEC.\PENGR.
170
4
140
0.08
171
1
172
0
173
1
174
0
175
1
176
1
177
1
178
0
145
0.0
170
1
171
1
172
0
173
1
174
0
175
1
176
1
177
1
178
0
145
0.0
170
1
171
1
172
0
173
0
174
0
175
1
176
1
177
33
178
0
145
0.0
  1
MECH.\PENGR.
170
4
140
0.08
171
1
172
0
173
1
174
0
175
1
176
1
177
1
178
0
145
0.0
170
1
171
1
172
0
173
1
174
0
175
1
176
1
177
1
178
0
145
0.0
170
1
171
1
172
0
173
0
174
0
175
1
176
1
177
33
178
0
145
0.0
  1
CHECKER
170
4
140
0.08
171
1
172
0
173
1
174
0
175
1
176
1
177
1
178
0
145
0.0
170
1
171
1
172
0
173
1
174
0
175
1
176
1
177
1
178
0
145
0.0
170
1
171
1
172
0
173
0
174
0
175
1
176
1
177
33
178
0
145
0.0
  1
DRAWN
170
4
140
0.08
171
1
172
0
173
0
174
0
175
1
176
1
177
33
178
0
145
0.0
  1
BJD
170
5
140
0.1
171
1
172
0
173
0
174
0
175
1
176
1
177
33
178
0
145
0.0
  1
2/19/10
170
5
140
0.1
  0
ACAD_TABLE
  5
377
100
AcDbEntity
  8
0
 62
2
  6
CONTINUOUS
100
AcDbBlockReference
  2
*T3
 10
11.2396059106
 20
1.0024868654
 30
0.0
100
AcDbTable
342
       3D2
343
234
 11
1.0
 21
0.0
 31
0.0
 90
6
 91
4
 92
2
 93
20
 94
0
 95
0
 96
0
 70
1
 41
0.028
141
0.5625
141
0.5625
141
0.625
141
0.25
142
1.5625
142
0.6875
171
1
172
0
173
0
174
0
175
2
176
1
177
33
178
0
145
0.0
  1
FINISH:\PSPEC:
170
4
140
0.1
171
1
172
0
173
1
174
0
175
1
176
1
177
1
178
0
145
0.0
170
4
171
1
172
0
173
0
174
0
175
2
176
1
177
33
178
0
145
0.0
  1
MATERIAL:\PSPEC:
170
4
140
0.1
171
1
172
0
173
1
174
0
175
1
176
1
177
1
178
0
145
0.0
170
4
171
1
172
0
173
0
174
0
175
1
176
1
177
33
178
0
145
0.0
  1
FRACTIONAL   \Fgdt;{\Fgdt;`}\Fveramono.ttf; 1/32\PDECIMAL .XXX \Fgdt;{\Fgdt;`}\Fveramono.ttf; .010\P.XX \Fgdt;{\Fgdt;`}\Fveramono.ttf; .020\PANGULAR      \Fgdt;{\Fgdt;`}\Fveramono.ttf; 1/2\Fgdt;{\Fgdt;~}
170
6
140
0.09
171
1
172
0
173
0
174
0
175
1
176
1
177
33
178
0
145
0.0
  1
DO NOT\PSCALE
170
5
140
0.125
171
1
172
0
173
0
174
0
175
2
176
1
177
33
178
0
145
0.0
  1
UNLESS OTHERWISE SPECIFIED:
170
1
140
0.095
171
1
172
0
173
1
174
0
175
1
176
1
177
1
178
0
145
0.0
170
1
  0
ACAD_TABLE
  5
378
100
AcDbEntity
  8
0
 62
2
  6
CONTINUOUS
100
AcDbBlockReference
  2
*T4
 10
14.6060267857
 20
15.9765625
 30
0.0
100
AcDbTable
342
       3D1
343
235
 11
1.0
 21
0.0
 31
0.0
 90
22
 91
4
 92
7
 93
16
 94
0
 95
0
 96
0
 41
0.006125
141
0.2421875
141
0.1953125
141
0.1953125
141
0.1953125
142
0.5
142
2.875
142
0.375
142
0.75
142
0.625
142
0.625
142
0.625
171
1
172
0
173
0
174
0
175
4
176
1
177
33
178
0
145
0.0
  1
REVISIONS
170
5
140
0.125
171
1
172
0
173
1
174
0
175
1
176
1
177
1
178
0
145
0.0
170
1
171
1
172
0
173
1
174
0
175
1
176
1
177
1
178
0
145
0.0
170
1
171
1
172
0
173
1
174
0
175
1
176
1
177
1
178
0
145
0.0
170
1
171
1
172
0
173
0
174
0
175
3
176
1
177
33
178
0
145
0.0
  1
APPROVALS
170
5
140
0.125
171
1
172
0
173
1
174
0
175
1
176
1
177
1
178
0
145
0.0
170
1
171
1
172
0
173
1
174
0
175
1
176
1
177
1
178
0
145
0.0
170
1
171
1
172
0
173
0
174
0
175
1
176
1
177
33
178
0
145
0.0
  1
SYM
170
5
140
0.1
171
1
172
0
173
0
174
0
175
1
176
1
177
33
178
0
145
0.0
  1
DESCRIPTION
170
5
140
0.1
171
1
172
0
173
0
174
0
175
1
176
1
177
33
178
0
145
0.0
  1
BY
170
5
140
0.1
171
1
172
0
173
0
174
0
175
1
176
1
177
33
178
0
145
0.0
  1
DATE
170
5
140
0.1
171
1
172
0
173
0
174
0
175
1
176
1
177
33
178
0
145
0.0
  1
ENGRG
170
5
140
0.1
171
1
172
0
173
0
174
0
175
1
176
1
177
33
178
0
145
0.0
  1
PROD
170
5
140
0.1
171
1
172
0
173
0
174
0
175
1
176
1
177
33
178
0
145
0.0
  1
Q.A.
170
5
140
0.1
171
1
172
0
173
0
174
0
175
1
176
1
177
33
178
0
145
0.0
  1
1
170
5
140
0.1
171
1
172
0
173
0
174
0
175
1
176
1
177
33
178
0
145
0.0
  1
ORIGINAL        
170
4
140
0.1
171
1
172
0
173
0
174
0
175
1
176
1
177
33
178
0
145
0.0
  1
BJD
170
5
140
0.1
171
1
172
0
173
0
174
0
175
1
176
1
177
33
178
0
145
0.0
  1
9/20/09
170
5
140
0.1
171
1
172
0
173
0
174
0
175
1
176
1
177
1
178
0
145
0.0
170
1
171
1
172
0
173
0
174
0
175
1
176
1
177
1
178
0
145
0.0
170
1
171
1
172
0
173
0
174
0
175
1
176
1
177
1
178
0
145
0.0
170
1
171
1
172
0
173
0
174
0
175
1
176
1
177
33
178
0
145
0.0
  1
2
170
5
140
0.1
171
1
172
0
173
0
174
0
175
1
176
1
177
33
178
0
145
0.0
  1
Revised
170
4
140
0.1
171
1
172
0
173
0
174
0
175
1
176
1
177
33
178
0
145
0.0
  1
BJD
170
5
140
0.1
171
1
172
0
173
0
174
0
175
1
176
1
177
33
178
0
145
0.0
  1
2/20/10
170
5
140
0.1
171
1
172
0
173
0
174
0
175
1
176
1
177
1
178
0
145
0.0
170
1
171
1
172
0
173
0
174
0
175
1
176
1
177
1
178
0
145
0.0
170
1
171
1
172
0
173
0
174
0
175
1
176
1
177
1
178
0
145
0.0
170
1
  0
MTEXT
  5
379
100
AcDbEntity
  8
BALLOONS
100
AcDbMText
 62
2
  6
CONTINUOUS
  7
STANDARD
 71
1
 72
1
 10
13.3123220199
 20
4.2984519868
 30
0.0
 11
1.0
 21
0.0
 31
0.0
 44
0.9
  1
Notes:\P1.  0.06" Thk.  (I used G10/FR4 fiberglass, acrylic may work too)\P2.  Dims are for reference only.  This should be cut with\P    CNC or laser.\P3.  Check all holes to see if they will work for your parts.
 40
0.125
 41
6.7261904762
  0
LEADER
  5
37A
100
AcDbEntity
  8
BALLOONS
100
AcDbLeader
 62
2
  6
CONTINUOUS
  3
STANDARD
 71
1
 72
0
 73
0
 75
0
 40
0.15625
 41
3.6217948718
 76
3
 10
7.0197574503
 20
6.8905133929
 30
0.0
 10
5.806843543
 20
4.0764701987
 30
0.0
 10
5.556843543
 20
4.0764701987
 30
0.0
340
37B
1001
ACAD
1000
DSTYLE
1002
{
1070
77
1070
0
1002
}
  0
MTEXT
  5
37B
102
{ACAD_REACTORS
330
37A
102
}
100
AcDbEntity
  8
BALLOONS
100
AcDbMText
 62
2
  6
CONTINUOUS
  7
STANDARD
 71
3
 72
1
 10
5.556843543
 20
4.1545951987
 30
0.0
 11
1.0
 21
0.0
 31
0.0
 44
0.9
  1
25P 'D' Parallel Port Cutout
 40
0.15625
 41
3.6217948718
  0
LEADER
  5
37C
100
AcDbEntity
  8
BALLOONS
100
AcDbLeader
 62
2
  6
CONTINUOUS
  3
STANDARD
 71
1
 72
0
 73
0
 75
0
 40
0.15625
 41
3.2337454212
 76
3
 10
10.643
 20
7.8299470199
 30
0.0
 10
12.6417773179
 20
8.3872317881
 30
0.0
 10
12.8917773179
 20
8.3872317881
 30
0.0
340
37D
1001
ACAD
1000
DSTYLE
1002
{
1070
77
1070
0
1002
}
  0
MTEXT
  5
37D
102
{ACAD_REACTORS
330
37C
102
}
100
AcDbEntity
  8
BALLOONS
100
AcDbMText
 62
2
  6
CONTINUOUS
  7
STANDARD
 71
1
 72
1
 10
12.8917773179
 20
8.4653567881
 30
0.0
 11
1.0
 21
0.0
 31
0.0
 44
0.9
  1
Power Entry Module Cutout
 40
0.15625
 41
3.2337454212
  0
LEADER
  5
37E
100
AcDbEntity
  8
BALLOONS
100
AcDbLeader
 62
2
  6
CONTINUOUS
  3
STANDARD
 71
1
 72
0
 73
0
 75
0
 40
0.15625
 41
3.8804945055
 76
3
 10
10.265
 20
9.8460066225
 30
0.0
 10
12.8220753311
 20
10.6819337748
 30
0.0
 10
13.0720753311
 20
10.6819337748
 30
0.0
340
37F
1001
ACAD
1000
DSTYLE
1002
{
1070
77
1070
0
1002
}
  0
MTEXT
  5
37F
102
{ACAD_REACTORS
330
37E
102
}
100
AcDbEntity
  8
BALLOONS
100
AcDbMText
 62
2
  6
CONTINUOUS
  7
STANDARD
 71
1
 72
1
 10
13.0720753311
 20
10.7600587748
 30
0.0
 11
1.0
 21
0.0
 31
0.0
 44
0.9
  1
U.S. Duplex A.C. Power Outlet \P(For Air and Water Pumps)
 40
0.15625
 41
3.8804945055
  0
LEADER
  5
380
100
AcDbEntity
  8
BALLOONS
100
AcDbLeader
 62
2
  6
CONTINUOUS
  3
STANDARD
 71
1
 72
0
 73
0
 75
0
 40
0.15625
 41
5.173992674
 76
3
 10
10.5833623066
 20
11.6264426784
 30
0.0
 10
12.543432947
 20
11.3211721854
 30
0.0
 10
12.793432947
 20
11.3211721854
 30
0.0
340
381
1001
ACAD
1000
DSTYLE
1002
{
1070
77
1070
0
1002
}
  0
MTEXT
  5
381
102
{ACAD_REACTORS
330
380
102
}
100
AcDbEntity
  8
BALLOONS
100
AcDbMText
 62
2
  6
CONTINUOUS
  7
STANDARD
 71
1
 72
1
 10
12.793432947
 20
11.3992971854
 30
0.0
 11
1.0
 21
0.0
 31
0.0
 44
0.9
  1
Holes for water in/out and assist air in
 40
0.15625
 41
5.173992674
  0
LINE
  5
382
100
AcDbEntity
  8
0
100
AcDbLine
 62
7
  6
CONTINUOUS
 10
0.0
 20
0.0
 11
0.0
 21
17.0
  0
LWPOLYLINE
  5
383
100
AcDbEntity
  8
0
100
AcDbPolyline
 62
7
  6
CONTINUOUS
 90
2
 70
0
 43
0.0600000005
 10
1.0
 20
16.0
 10
1.0
 20
1.0
  0
LINE
  5
384
100
AcDbEntity
  8
0
100
AcDbLine
 62
7
  6
CONTINUOUS
 10
0.0
 20
0.0
 11
22.0
 21
0.0
  0
LWPOLYLINE
  5
385
100
AcDbEntity
  8
0
100
AcDbPolyline
 62
7
  6
CONTINUOUS
 90
2
 70
0
 43
0.0600000005
 10
1.0
 20
1.0
 10
21.0
 20
1.0
  0
LWPOLYLINE
  5
386
100
AcDbEntity
  8
0
100
AcDbPolyline
 62
7
  6
CONTINUOUS
 90
2
 70
0
 43
0.0150000001
 10
4.333
 20
16.0
 10
4.333
 20
16.25
  0
LWPOLYLINE
  5
387
100
AcDbEntity
  8
0
100
AcDbPolyline
 62
7
  6
CONTINUOUS
 90
2
 70
0
 43
0.0150000001
 10
1.0
 20
4.75
 10
0.75
 20
4.75
  0
LWPOLYLINE
  5
388
100
AcDbEntity
  8
0
100
AcDbPolyline
 62
7
  6
CONTINUOUS
 90
2
 70
0
 43
0.0150000001
 10
7.666
 20
16.0
 10
7.666
 20
16.25
  0
LWPOLYLINE
  5
389
100
AcDbEntity
  8
0
100
AcDbPolyline
 62
7
  6
CONTINUOUS
 90
2
 70
0
 43
0.0150000001
 10
10.999
 20
16.0
 10
10.999
 20
16.25
  0
LWPOLYLINE
  5
38A
100
AcDbEntity
  8
0
100
AcDbPolyline
 62
7
  6
CONTINUOUS
 90
2
 70
0
 43
0.0150000001
 10
1.0
 20
8.5
 10
0.75
 20
8.5
  0
LWPOLYLINE
  5
38B
100
AcDbEntity
  8
0
100
AcDbPolyline
 62
7
  6
CONTINUOUS
 90
2
 70
0
 43
0.0150000001
 10
14.332
 20
16.0
 10
14.332
 20
16.25
  0
LWPOLYLINE
  5
38C
100
AcDbEntity
  8
0
100
AcDbPolyline
 62
7
  6
CONTINUOUS
 90
2
 70
0
 43
0.0150000001
 10
1.0
 20
12.25
 10
0.75
 20
12.25
  0
LWPOLYLINE
  5
38D
100
AcDbEntity
  8
0
100
AcDbPolyline
 62
7
  6
CONTINUOUS
 90
2
 70
0
 43
0.0150000001
 10
17.665
 20
16.0
 10
17.665
 20
16.25
  0
LWPOLYLINE
  5
38E
100
AcDbEntity
  8
0
100
AcDbPolyline
 62
7
  6
CONTINUOUS
 90
2
 70
0
 43
0.0600000005
 10
1.0
 20
16.0
 10
21.0
 20
16.0
  0
LINE
  5
38F
100
AcDbEntity
  8
0
100
AcDbLine
 62
7
  6
CONTINUOUS
 10
0.0
 20
17.0
 11
22.0
 21
17.0
  0
LWPOLYLINE
  5
390
100
AcDbEntity
  8
0
100
AcDbPolyline
 62
7
  6
CONTINUOUS
 90
2
 70
0
 43
0.0600000005
 10
21.0
 20
1.0
 10
21.0
 20
16.0
  0
LINE
  5
391
100
AcDbEntity
  8
0
100
AcDbLine
 62
7
  6
CONTINUOUS
 10
22.0
 20
0.0
 11
22.0
 21
17.0
  0
LINE
  5
392
100
AcDbEntity
  8
0
100
AcDbLine
 62
7
  6
CONTINUOUS
 10
6.5625
 20
5.1155133929
 11
11.3125
 21
5.1155133929
  0
LINE
  5
393
100
AcDbEntity
  8
0
100
AcDbLine
 62
7
  6
CONTINUOUS
 10
5.5625
 20
12.6155133929
 11
5.5625
 21
6.1155133929
  0
LINE
  5
394
100
AcDbEntity
  8
02___PRT_ALL_AXES
100
AcDbLine
 62
7
  6
CONTINUOUS
 10
9.56
 20
5.9540133929
 11
10.643
 21
5.9540133929
  0
LINE
  5
395
100
AcDbEntity
  8
0
100
AcDbLine
 62
7
  6
CONTINUOUS
 10
6.566
 20
7.2805133929
 11
6.566
 21
7.1755133929
  0
LINE
  5
396
100
AcDbEntity
  8
0
100
AcDbLine
 62
7
  6
CONTINUOUS
 10
6.566
 20
7.0555133929
 11
6.566
 21
6.9505133929
  0
LINE
  5
397
100
AcDbEntity
  8
0
100
AcDbLine
 62
7
  6
CONTINUOUS
 10
6.626
 20
6.8905133929
 11
8.249
 21
6.8905133929
  0
LINE
  5
398
100
AcDbEntity
  8
0
100
AcDbLine
 62
7
  6
CONTINUOUS
 10
6.5115
 20
7.0555133929
 11
6.566
 21
7.0555133929
  0
LINE
  5
399
100
AcDbEntity
  8
0
100
AcDbLine
 62
7
  6
CONTINUOUS
 10
8.309
 20
7.0555133929
 11
8.3635
 21
7.0555133929
  0
LINE
  5
39A
100
AcDbEntity
  8
0
100
AcDbLine
 62
7
  6
CONTINUOUS
 10
8.3635
 20
7.1755133929
 11
8.309
 21
7.1755133929
  0
LINE
  5
39B
100
AcDbEntity
  8
0
100
AcDbLine
 62
7
  6
CONTINUOUS
 10
6.566
 20
7.1755133929
 11
6.5115
 21
7.1755133929
  0
LINE
  5
39C
100
AcDbEntity
  8
0
100
AcDbLine
 62
7
  6
CONTINUOUS
 10
8.249
 20
7.3405133929
 11
6.626
 21
7.3405133929
  0
LINE
  5
39D
100
AcDbEntity
  8
0
100
AcDbLine
 62
7
  6
CONTINUOUS
 10
7.61
 20
10.2386336818
 11
7.61
 21
9.4923931039
  0
LINE
  5
39E
100
AcDbEntity
  8
02___PRT_ALL_AXES
100
AcDbLine
 62
7
  6
CONTINUOUS
 10
10.643
 20
8.2770133929
 11
9.56
 21
8.2770133929
  0
LINE
  5
39F
100
AcDbEntity
  8
0
100
AcDbLine
 62
7
  6
CONTINUOUS
 10
8.309
 20
6.9505133929
 11
8.309
 21
7.0555133929
  0
LINE
  5
3A0
100
AcDbEntity
  8
0
100
AcDbLine
 62
7
  6
CONTINUOUS
 10
8.309
 20
7.1755133929
 11
8.309
 21
7.2805133929
  0
LINE
  5
3A1
100
AcDbEntity
  8
0
100
AcDbLine
 62
7
  6
CONTINUOUS
 10
8.735
 20
9.4923931039
 11
8.735
 21
10.2386336818
  0
LINE
  5
3A2
100
AcDbEntity
  8
0
100
AcDbLine
 62
7
  6
CONTINUOUS
 10
9.14
 20
10.2386336818
 11
9.14
 21
9.4923931039
  0
LINE
  5
3A3
100
AcDbEntity
  8
02___PRT_ALL_AXES
100
AcDbLine
 62
7
  6
CONTINUOUS
 10
9.56
 20
8.2770133929
 11
9.56
 21
5.9540133929
  0
LINE
  5
3A4
100
AcDbEntity
  8
0
100
AcDbLine
 62
7
  6
CONTINUOUS
 10
10.265
 20
9.4923931039
 11
10.265
 21
10.2386336818
  0
LINE
  5
3A5
100
AcDbEntity
  8
02___PRT_ALL_AXES
100
AcDbLine
 62
7
  6
CONTINUOUS
 10
10.643
 20
5.9540133929
 11
10.643
 21
8.2770133929
  0
LINE
  5
3A6
100
AcDbEntity
  8
0
100
AcDbLine
 62
7
  6
CONTINUOUS
 10
12.3125
 20
6.1155133929
 11
12.3125
 21
12.6155133929
  0
LINE
  5
3A7
100
AcDbEntity
  8
0
100
AcDbLine
 62
7
  6
CONTINUOUS
 10
11.3125
 20
13.6155133929
 11
6.5625
 21
13.6155133929
  0
LINE
  5
3A8
100
AcDbEntity
  8
0
100
AcDbLine
 62
7
  6
CONTINUOUS
 10
3.7614480198
 20
5.1155133929
 11
3.6989480198
 21
5.1155133929
  0
LINE
  5
3A9
100
AcDbEntity
  8
0
100
AcDbLine
 62
9
  6
CONTINUOUS
 10
3.7614480198
 20
6.1155133929
 11
3.6989480198
 21
6.1155133929
  0
LINE
  5
3AA
100
AcDbEntity
  8
0
100
AcDbLine
 62
7
  6
CONTINUOUS
 10
3.6989480198
 20
5.1155133929
 11
3.6989480198
 21
13.6155133929
  0
LINE
  5
3AB
100
AcDbEntity
  8
0
100
AcDbLine
 62
7
  6
CONTINUOUS
 10
3.7614480198
 20
13.6155133929
 11
3.7614480198
 21
5.1155133929
  0
LINE
  5
3AC
100
AcDbEntity
  8
0
100
AcDbLine
 62
9
  6
CONTINUOUS
 10
3.7614480198
 20
12.6155133929
 11
3.6989480198
 21
12.6155133929
  0
LINE
  5
3AD
100
AcDbEntity
  8
0
100
AcDbLine
 62
7
  6
CONTINUOUS
 10
3.7614480198
 20
13.6155133929
 11
3.6989480198
 21
13.6155133929
  0
ARC
  5
3AE
100
AcDbEntity
  8
0
100
AcDbCircle
 62
7
  6
CONTINUOUS
 10
6.5625
 20
6.1155133929
 40
1.0
100
AcDbArc
 50
180.0
 51
270.0
  0
CIRCLE
  5
3AF
100
AcDbEntity
  8
02___PRT_ALL_AXES
100
AcDbCircle
 62
7
  6
CONTINUOUS
 10
5.875
 20
6.8655133929
 40
0.1015
  0
CIRCLE
  5
3B0
100
AcDbEntity
  8
02___PRT_ALL_AXES
100
AcDbCircle
 62
7
  6
CONTINUOUS
 10
6.9375
 20
5.4280133929
 40
0.1015
  0
ARC
  5
3B1
100
AcDbEntity
  8
0
100
AcDbCircle
 62
7
  6
CONTINUOUS
 10
8.249
 20
7.2805133929
 40
0.06
100
AcDbArc
 50
0.0
 51
90.0
  0
ARC
  5
3B2
100
AcDbEntity
  8
0
100
AcDbCircle
 62
7
  6
CONTINUOUS
 10
8.3635
 20
7.1155133929
 40
0.06
100
AcDbArc
 50
270.0
 51
90.0
  0
ARC
  5
3B3
100
AcDbEntity
  8
0
100
AcDbCircle
 62
7
  6
CONTINUOUS
 10
8.249
 20
6.9505133929
 40
0.06
100
AcDbArc
 50
270.0
 51
360.0
  0
ARC
  5
3B4
100
AcDbEntity
  8
0
100
AcDbCircle
 62
7
  6
CONTINUOUS
 10
6.626
 20
6.9505133929
 40
0.06
100
AcDbArc
 50
180.0
 51
270.0
  0
ARC
  5
3B5
100
AcDbEntity
  8
0
100
AcDbCircle
 62
7
  6
CONTINUOUS
 10
6.5115
 20
7.1155133929
 40
0.06
100
AcDbArc
 50
90.0
 51
270.0
  0
ARC
  5
3B6
100
AcDbEntity
  8
0
100
AcDbCircle
 62
7
  6
CONTINUOUS
 10
6.626
 20
7.2805133929
 40
0.06
100
AcDbArc
 50
90.0
 51
180.0
  0
ARC
  5
3B7
100
AcDbEntity
  8
0
100
AcDbCircle
 62
7
  6
CONTINUOUS
 10
6.5625
 20
12.6155133929
 40
1.0
100
AcDbArc
 50
90.0
 51
180.0
  0
ARC
  5
3B8
100
AcDbEntity
  8
0
100
AcDbCircle
 62
7
  6
CONTINUOUS
 10
8.1725
 20
9.8655133929
 40
0.675
100
AcDbArc
 50
213.5573097619
 51
326.4426902381
  0
ARC
  5
3B9
100
AcDbEntity
  8
0
100
AcDbCircle
 62
7
  6
CONTINUOUS
 10
8.1725
 20
9.8655133929
 40
0.675
100
AcDbArc
 50
33.5573097619
 51
146.4426902381
  0
CIRCLE
  5
3BA
100
AcDbEntity
  8
02___PRT_ALL_AXES
100
AcDbCircle
 62
7
  6
CONTINUOUS
 10
8.3125
 20
11.8655133929
 40
0.24
  0
CIRCLE
  5
3BB
100
AcDbEntity
  8
02___PRT_ALL_AXES
100
AcDbCircle
 62
7
  6
CONTINUOUS
 10
5.875
 20
9.3655133929
 40
0.1015
  0
CIRCLE
  5
3BC
100
AcDbEntity
  8
02___PRT_ALL_AXES
100
AcDbCircle
 62
7
  6
CONTINUOUS
 10
5.875
 20
11.8655133929
 40
0.1015
  0
CIRCLE
  5
3BD
100
AcDbEntity
  8
02___PRT_ALL_AXES
100
AcDbCircle
 62
7
  6
CONTINUOUS
 10
6.9375
 20
13.3030133929
 40
0.1015
  0
ARC
  5
3BE
100
AcDbEntity
  8
0
100
AcDbCircle
 62
7
  6
CONTINUOUS
 10
11.3125
 20
6.1155133929
 40
1.0
100
AcDbArc
 50
270.0
 51
360.0
  0
CIRCLE
  5
3BF
100
AcDbEntity
  8
02___PRT_ALL_AXES
100
AcDbCircle
 62
7
  6
CONTINUOUS
 10
8.9375
 20
5.4280133929
 40
0.1015
  0
CIRCLE
  5
3C0
100
AcDbEntity
  8
02___PRT_ALL_AXES
100
AcDbCircle
 62
7
  6
CONTINUOUS
 10
10.9375
 20
5.4280133929
 40
0.1015
  0
CIRCLE
  5
3C1
100
AcDbEntity
  8
02___PRT_ALL_AXES
100
AcDbCircle
 62
7
  6
CONTINUOUS
 10
12.0
 20
6.8655133929
 40
0.1015
  0
CIRCLE
  5
3C2
100
AcDbEntity
  8
02___PRT_ALL_AXES
100
AcDbCircle
 62
7
  6
CONTINUOUS
 10
10.889
 20
7.1155133929
 40
0.07
  0
CIRCLE
  5
3C3
100
AcDbEntity
  8
02___PRT_ALL_AXES
100
AcDbCircle
 62
7
  6
CONTINUOUS
 10
9.314
 20
7.1155133929
 40
0.07
  0
ARC
  5
3C4
100
AcDbEntity
  8
0
100
AcDbCircle
 62
7
  6
CONTINUOUS
 10
11.3125
 20
12.6155133929
 40
1.0
100
AcDbArc
 50
0.0
 51
90.0
  0
ARC
  5
3C5
100
AcDbEntity
  8
0
100
AcDbCircle
 62
7
  6
CONTINUOUS
 10
9.7025
 20
9.8655133929
 40
0.675
100
AcDbArc
 50
33.5573097619
 51
146.4426902381
  0
ARC
  5
3C6
100
AcDbEntity
  8
0
100
AcDbCircle
 62
7
  6
CONTINUOUS
 10
9.7025
 20
9.8655133929
 40
0.675
100
AcDbArc
 50
213.5573097619
 51
326.4426902381
  0
CIRCLE
  5
3C7
100
AcDbEntity
  8
02___PRT_ALL_AXES
100
AcDbCircle
 62
7
  6
CONTINUOUS
 10
9.4375
 20
11.8655133929
 40
0.24
  0
CIRCLE
  5
3C8
100
AcDbEntity
  8
02___PRT_ALL_AXES
100
AcDbCircle
 62
7
  6
CONTINUOUS
 10
10.5625
 20
11.8655133929
 40
0.24
  0
CIRCLE
  5
3C9
100
AcDbEntity
  8
02___PRT_ALL_AXES
100
AcDbCircle
 62
7
  6
CONTINUOUS
 10
10.9375
 20
13.3030133929
 40
0.1015
  0
CIRCLE
  5
3CA
100
AcDbEntity
  8
02___PRT_ALL_AXES
100
AcDbCircle
 62
7
  6
CONTINUOUS
 10
12.0
 20
11.8655133929
 40
0.1015
  0
CIRCLE
  5
3CB
100
AcDbEntity
  8
02___PRT_ALL_AXES
100
AcDbCircle
 62
7
  6
CONTINUOUS
 10
12.0
 20
9.3655133929
 40
0.1015
  0
CIRCLE
  5
3CC
100
AcDbEntity
  8
02___PRT_ALL_AXES
100
AcDbCircle
 62
7
  6
CONTINUOUS
 10
8.9375
 20
13.3030133929
 40
0.1015
  0
CIRCLE
  5
3CD
100
AcDbEntity
  8
0
100
AcDbCircle
 62
7
  6
CONTINUOUS
 10
8.9375
 20
9.8655133929
 40
0.0935
  0
ENDSEC
  0
SECTION
  2
OBJECTS
  0
DICTIONARY
  5
C
100
AcDbDictionary
280
0
281
1
  3
ACAD_GROUP
350
D
  3
ACAD_MLINESTYLE
350
17
  3
ACAD_LAYOUT
350
1A
  3
ACAD_PLOTSETTINGS
350
19
  3
ACAD_PLOTSTYLENAME
350
E
  3
ACAD_TABLESTYLE
350
       3CE
  0
DICTIONARY
  5
D
102
{ACAD_REACTORS
330
C
102
}
100
AcDbDictionary
280
0
281
1
  0
ACDBDICTIONARYWDFLT
  5
E
102
{ACAD_REACTORS
330
C
102
}
100
AcDbDictionary
281
1
  3
Normal
350
F
100
AcDbDictionaryWithDefault
340
F
  0
DICTIONARY
  5
17
102
{ACAD_REACTORS
330
C
102
}
100
AcDbDictionary
280
0
281
1
  3
Standard
350
18
  0
DICTIONARY
  5
3CE
330
C
100
AcDbDictionary
281
1
  3
Standard
350
       3D1
  3
Standard1
350
       3D2
  0
DICTIONARY
  5
19
102
{ACAD_REACTORS
330
C
102
}
100
AcDbDictionary
281
1
  0
DICTIONARY
  5
1A
102
{ACAD_REACTORS
330
C
102
}
100
AcDbDictionary
281
1
  3
Model
350
3CF
  3
Layout1
350
3D0
  0
ACDBPLACEHOLDER
  5
F
102
{ACAD_REACTORS
330
E
102
}
  0
MLINESTYLE
  5
18
102
{ACAD_REACTORS
330
17
102
}
100
AcDbMlineStyle
  2
STANDARD
 70
0
  3

 62
256
 51
90.0
 52
90.0
 71
2
 49
0.5
 62
256
  6
BYLAYER
 49
-0.5
 62
256
  6
BYLAYER
  0
LAYOUT
  5
3CF
102
{ACAD_REACTORS
330
1A
102
}
100
AcDbPlotSettings
  1

  2
none_device
  4
ANSI_C_(22.00_x_17.00_Inches)
  6

 40
0.0
 41
0.0
 42
0.0
 43
0.0
 44
558.8
 45
431.8
 46
0.0
 47
0.0
 48
0.0
 49
0.0
140
0.0
141
0.0
142
1.0
143
1.0
 70
1024
 72
0
 73
0
 74
0
  7

 75
0
147
1.0
148
0.0
149
0.0
100
AcDbLayout
  1
Model
 70
0
 71
0
 10
0.0
 20
0.0
 11
22.0
 21
17.0
 12
0.0
 22
0.0
 32
0.0
 14
0.0
 24
0.0
 34
0.0
 15
0.0
 25
0.0
 35
0.0
146
0.0
 13
0.0
 23
0.0
 33
0.0
 16
1.0
 26
0.0
 36
0.0
 17
0.0
 27
1.0
 37
0.0
 76
0
330
20E
345
0
346
0
  0
LAYOUT
  5
3D0
102
{ACAD_REACTORS
330
1A
102
}
100
AcDbPlotSettings
  1

  2
none_device
  4
ANSI_C_(22.00_x_17.00_Inches)
  6

 40
0.0
 41
0.0
 42
0.0
 43
0.0
 44
558.8
 45
431.8
 46
0.0
 47
0.0
 48
0.0
 49
0.0
140
0.0
141
0.0
142
1.0
143
1.0
 70
0
 72
0
 73
0
 74
0
  7

 75
0
147
1.0
148
0.0
149
0.0
100
AcDbLayout
  1
Layout1
 70
0
 71
1
 10
0.0
 20
0.0
 11
22.0
 21
17.0
 12
0.0
 22
0.0
 32
0.0
 14
0.0
 24
0.0
 34
0.0
 15
0.0
 25
0.0
 35
0.0
146
0.0
 13
0.0
 23
0.0
 33
0.0
 16
1.0
 26
0.0
 36
0.0
 17
0.0
 27
1.0
 37
0.0
 76
0
330
20F
345
0
346
0
  0
TABLESTYLE
  5
3D1
102
{ACAD_REACTORS
330
3CE
330
378
102
}
330
3CE
100
AcDbTableStyle
  3
Standard
 70
0
 71
0
 40
0.06
 41
0.06
280
1
281
1
  7
Standard
140
0.18
170
1
 62
0
 63
7
283
0
  7
Standard
140
0.18
170
1
 62
0
 63
7
283
0
  7
Standard
140
0.18
170
1
 62
0
 63
7
283
0
  0
TABLESTYLE
  5
3D2
102
{ACAD_REACTORS
330
3CE
330
375
330
376
330
377
102
}
330
3CE
100
AcDbTableStyle
  3
Standard1
 70
1
 71
0
 40
0.06
 41
0.06
280
1
281
1
  7
Standard
140
0.18
170
1
 62
0
 63
7
283
0
  7
Standard
140
0.18
170
1
 62
0
 63
7
283
0
  7
Standard
140
0.18
170
1
 62
0
 63
7
283
0
  0
ENDSEC
  0
EOF
